<?xml version="1.0" standalone="no"?>
<!DOCTYPE svg PUBLIC "-//W3C//DTD SVG 1.1//EN" "http://www.w3.org/Graphics/SVG/1.1/DTD/svg11.dtd" >
<svg xmlns="http://www.w3.org/2000/svg" xmlns:xlink="http://www.w3.org/1999/xlink" version="1.1">
<metadata>
Created by FontForge 20170731 at Sat May  4 12:44:54 2019
 By Aleksey,,,
Copyright (c) 1949 by Studio Sun. All rights reserved.
</metadata>
<defs>
<font id="Tropiline-ExtraBold" horiz-adv-x="907" >
  <font-face 
    font-family="Tropiline ExtraBold"
    font-weight="800"
    font-stretch="normal"
    units-per-em="1000"
    panose-1="0 0 0 0 0 0 0 0 0 0"
    ascent="750"
    descent="-250"
    x-height="522"
    cap-height="700"
    bbox="-291 -683 1504 1102"
    underline-thickness="50"
    underline-position="-150"
    unicode-range="U+0020-FB00"
  />
<missing-glyph horiz-adv-x="657" 
d="M569 700v-700h-481v700h481zM473 625h-288v-550h288v550z" />
    <glyph glyph-name="T_h" unicode="Th" horiz-adv-x="1295" 
d="M1249 68.5q16 -22.5 41 -29.5l-8 -39h-247l-8 39q43 13 43 72q0 10 -1 16l-27 246q-4 43 -26.5 65.5t-53.5 22.5q-36 0 -62 -24.5t-26 -64.5v-245q0 -36 14 -58.5t37 -29.5l-8 -39h-246l-8 39q24 7 37.5 29.5t13.5 58.5v486q-75 -27 -150 -27q-22 0 -32 1v-460
q0 -36 13.5 -58.5t37.5 -29.5l-8 -39h-275l-8 39q24 7 38 29.5t14 58.5v497q-52 16 -80.5 22.5t-59.5 6.5q-66 0 -66 -43q0 -12 4.5 -21t13.5 -24q11 -18 16 -30.5t5 -29.5q0 -31 -23 -53t-58 -22q-37 0 -63.5 29.5t-26.5 68.5q0 52 28.5 97t82 72t125.5 27q87 0 198 -15
q58 -7 99 -10.5t90 -3.5q59 0 126 21.5t120 60.5l12 -5q-13 -60 -13 -169v-119h7q21 26 54.5 42t74.5 16q87 0 139.5 -53t61.5 -160l18 -202q4 -36 20 -58.5z" />
    <glyph glyph-name="f_t" unicode="ft" horiz-adv-x="729" 
d="M591 128q0 -71 55 -71q13 0 30.5 3.5t27.5 8.5l16 -65q-22 -10 -61.5 -17t-69.5 -7q-79 0 -120 35.5t-41 115.5v311h-152v-316q0 -36 13.5 -58.5t37.5 -28.5l-8 -40h-247l-8 40q24 6 37.5 28.5t13.5 58.5v316h-97v80h94l-7 37q-10 46 -10 70q0 44 21.5 81t62 59t97.5 22
q41 0 75 -16t54 -43.5t20 -60.5q0 -31 -17.5 -51t-47.5 -20q-34 0 -47.5 16t-22.5 47q-7 24 -15.5 36t-27.5 12q-17 0 -25.5 -12t-8.5 -32q0 -21 10 -48.5t26 -62.5q7 -14 15 -34h136q93 49 142 146h49v-147h131v-79h-131v-314z" />
    <glyph glyph-name="f_f" unicode="ff" horiz-adv-x="791" 
d="M596 618.5q10 -27.5 26 -62.5q7 -14 15 -34h157v-79h-145v-317q0 -36 13.5 -58.5t37.5 -28.5l-8 -39h-247l-8 39q24 6 37.5 28.5t13.5 58.5v317h-212v-317q0 -36 13.5 -58.5t37.5 -28.5l-8 -39h-247l-8 39q24 6 37.5 28.5t13.5 58.5v317h-97v79h94l-7 37q-10 46 -10 70
q0 44 21.5 81t62 59t97.5 22q41 0 75 -16t54 -43.5t20 -60.5q0 -31 -17.5 -51t-47.5 -20q-34 0 -47.5 16t-22.5 47q-7 24 -15.5 36t-27.5 12q-17 0 -25.5 -12t-8.5 -32q0 -21 10 -48.5t26 -62.5q7 -14 15 -34h221l-7 37q-10 46 -10 70q0 44 21.5 81t62 59t97.5 22
q41 0 75 -16t54 -43.5t20 -60.5q0 -31 -17.5 -51t-47.5 -20q-34 0 -47.5 16t-22.5 47q-7 24 -15.5 36t-27.5 12q-17 0 -25.5 -12t-8.5 -32q0 -21 10 -48.5z" />
    <glyph glyph-name=".notdef" horiz-adv-x="657" 
d="M569 700v-700h-481v700h481zM473 625h-288v-550h288v550z" />
    <glyph glyph-name=".null" horiz-adv-x="0" 
 />
    <glyph glyph-name="nonmarkingreturn" unicode="&#xe001;" horiz-adv-x="500" 
 />
    <glyph glyph-name="space" unicode=" " horiz-adv-x="242" 
 />
    <glyph glyph-name="exclam" unicode="!" horiz-adv-x="296" 
d="M88.5 364q-9.5 47 -25.5 104q-13 43 -18.5 71.5t-5.5 62.5q0 63 32 90t77 27t77 -27t32 -90q0 -34 -5.5 -62.5t-18.5 -71.5q-16 -57 -25.5 -104t-12.5 -117h-94q-3 70 -12.5 117zM71 9.5q-31 29.5 -31 75.5t31 75.5t75 29.5q45 0 76 -29.5t31 -75.5t-31 -75.5t-76 -29.5
q-44 0 -75 29.5z" />
    <glyph glyph-name="quotedbl" unicode="&#x22;" horiz-adv-x="481" 
d="M90.5 482q-8.5 29 -20.5 66q-11 34 -15.5 50.5t-4.5 35.5q0 39 23.5 62t59.5 23t60 -23t24 -62q0 -19 -4.5 -36.5t-15.5 -47.5q-2 -6 -14.5 -44.5t-21.5 -93.5h-55q-7 41 -15.5 70zM298.5 505.5q-12.5 38.5 -14.5 44.5q-11 30 -15.5 47.5t-4.5 36.5q0 39 23.5 62t59.5 23
t60 -23t24 -62q0 -19 -4.5 -35.5t-15.5 -50.5q-12 -37 -20.5 -66t-15.5 -70h-55q-9 55 -21.5 93.5z" />
    <glyph glyph-name="numbersign" unicode="#" horiz-adv-x="702" 
d="M8 187v63h150l69 201h-133v62h155l65 187h88l-64 -187h139l64 187h89l-64 -187h129v-62h-151l-69 -201h133v-63h-156l-63 -187h-89l63 187h-139l-63 -187h-88l63 187h-128zM455 451h-139l-69 -201h140z" />
    <glyph glyph-name="dollar" unicode="$" horiz-adv-x="664" 
d="M599 99.5q-35 -51.5 -96 -81.5t-138 -36v-154h-76v153q-89 4 -148.5 27.5t-88 57.5t-28.5 71q0 30 21 50t53 20q33 0 48.5 -16t31.5 -50q14 -30 28 -48.5t42.5 -32t76.5 -13.5q55 0 91.5 27.5t36.5 69.5q0 49 -43.5 77.5t-130.5 56.5q-70 22 -118.5 47.5t-80.5 70
t-32 113.5q0 89 66.5 143t174.5 64v130h76v-128q62 -3 114.5 -20.5t84 -47.5t31.5 -68q0 -30 -17 -48t-48 -18q-28 0 -41.5 13.5t-26.5 42.5q-12 25 -24 41.5t-35.5 27.5t-62.5 11q-49 0 -83 -26t-34 -64q0 -45 40.5 -70t125.5 -50q75 -21 126 -45t85 -68t34 -112
q0 -66 -35 -117.5z" />
    <glyph glyph-name="percent" unicode="%" horiz-adv-x="876" 
d="M114 357.5q-45 24.5 -70.5 68.5t-25.5 100q0 57 24.5 101t69.5 68t104 24q57 0 101.5 -24.5t69.5 -68.5t25 -101q0 -56 -24.5 -99.5t-69 -68t-101.5 -24.5q-58 0 -103 24.5zM627 700l-305 -700h-71l306 700h70zM268.5 433.5q19.5 33.5 19.5 91.5q0 59 -20 92.5t-52 33.5
q-34 0 -53.5 -32.5t-19.5 -92.5q0 -59 20 -92.5t53 -33.5t52.5 33.5zM560 5q-45 25 -70 69t-25 100q0 57 24.5 100.5t69 67.5t103.5 24q57 0 101.5 -24.5t69.5 -68.5t25 -100t-24.5 -100t-69 -68.5t-101.5 -24.5q-58 0 -103 25zM714.5 80.5q19.5 33.5 19.5 92.5t-20 92.5
t-52 33.5q-34 0 -53.5 -33t-19.5 -93q0 -58 20 -92t53 -34t52.5 33.5z" />
    <glyph glyph-name="ampersand" unicode="&#x26;" horiz-adv-x="944" 
d="M902.5 238q24.5 -32 24.5 -80q0 -54 -28.5 -94t-78.5 -61.5t-113 -21.5q-101 0 -167 51q-102 -51 -222 -51q-94 0 -160 33.5t-98.5 86t-32.5 107.5q0 81 47.5 144t126.5 91v8q-31 19 -48 49t-17 69q0 71 53.5 110.5t143.5 39.5t143.5 -40t53.5 -111q0 -50 -27 -85
t-77 -51v-9q65 -27 103.5 -80t76.5 -136q34 62 34 138q0 73 -83 94l9 39h247l10 -39q-33 -8 -58 -32t-25 -65q0 -67 -23 -124.5t-65 -102.5q18 -29 38 -44t46 -15t45.5 15.5t19.5 41.5q0 13 -4.5 22.5t-14.5 23.5q-10 13 -15 24t-5 26q0 27 19.5 44t50.5 17q46 0 70.5 -32z
M280 630q-20 -24 -20 -66q0 -41 20.5 -65.5t52.5 -24.5q33 0 52.5 24t19.5 65q0 42 -20 66.5t-52 24.5q-33 0 -53 -24zM225 149.5q18 -33.5 53 -54.5t84 -21q62 0 119 23q-29 45 -63 135q-26 66 -45.5 102.5t-49.5 57.5q-50 -32 -83 -76.5t-33 -96.5q0 -36 18 -69.5z" />
    <glyph glyph-name="quotesingle" unicode="'" horiz-adv-x="268" 
d="M90.5 482q-8.5 29 -20.5 66q-11 34 -15.5 50.5t-4.5 35.5q0 39 23.5 62t59.5 23t60 -23t24 -62q0 -19 -4.5 -36.5t-15.5 -47.5q-2 -6 -14.5 -44.5t-21.5 -93.5h-55q-7 41 -15.5 70z" />
    <glyph glyph-name="parenleft" unicode="(" horiz-adv-x="362" 
d="M105 -25q-87 117 -87 285t87 285.5t222 188.5l27 -33q-83 -61 -135.5 -180t-52.5 -261t52.5 -259t136.5 -181l-27 -33q-136 71 -223 188z" />
    <glyph glyph-name="parenright" unicode=")" horiz-adv-x="362" 
d="M143.5 1q52.5 117 52.5 259t-52.5 261t-135.5 180l27 33q135 -71 222 -188.5t87 -285.5t-87 -285t-223 -188l-27 33q84 64 136.5 181z" />
    <glyph glyph-name="asterisk" unicode="*" horiz-adv-x="497" 
d="M84 333q0 19 12 35q7 10 19 20t26 20q35 26 52 41l-7 25q-26 3 -65 3q-18 0 -34 1t-28 5q-20 7 -30 20.5t-10 31.5q0 10 3 19q6 18 20 29t33 11q9 0 19 -3q12 -4 25.5 -12.5t26.5 -18.5q36 -26 56 -38l21 15q-8 34 -18 62q-1 4 -7 24t-6 38q0 27 16 42.5t40 15.5
t40.5 -15.5t16.5 -42.5q0 -17 -6 -36t-7 -23q-2 -8 -8 -27.5t-10 -38.5l20 -14q17 9 33 20.5t22 15.5q14 11 27.5 19.5t26.5 12.5q10 3 20 3q19 0 32.5 -10.5t19.5 -28.5q3 -9 3 -19q0 -18 -10 -31.5t-30 -20.5q-12 -4 -28.5 -5t-34.5 -1q-39 0 -66 -3l-7 -24q29 -25 52 -40
q14 -10 26.5 -20.5t20.5 -21.5q12 -16 12 -35q0 -28 -25 -45q-15 -12 -34 -12q-27 0 -45 25q-7 10 -13.5 25t-11.5 32q-2 6 -8.5 24.5t-14.5 37.5h-24q-15 -31 -24 -64q-6 -16 -12 -30.5t-13 -24.5q-18 -25 -45 -25q-19 0 -34 12q-25 17 -25 45z" />
    <glyph glyph-name="plus" unicode="+" horiz-adv-x="570" 
d="M8 318v65h240v243h72v-243h242v-65h-242v-243h-72v243h-240z" />
    <glyph glyph-name="comma" unicode="," horiz-adv-x="301" 
d="M233.5 137q31.5 -35 31.5 -95q0 -79 -47 -150t-123 -109l-35 51q44 30 70.5 67.5t40.5 85.5l-3 4q-17 -10 -31 -10q-41 0 -69.5 27t-28.5 69t33 68.5t80 26.5q50 0 81.5 -35z" />
    <glyph glyph-name="hyphen" unicode="-" horiz-adv-x="310" 
d="M303 338v-120h-295v120h295z" />
    <glyph glyph-name="period" unicode="." horiz-adv-x="284" 
d="M67 10q-31 29 -31 75t31 75.5t75 29.5t75 -29.5t31 -75.5t-31 -75t-75 -29t-75 29z" />
    <glyph glyph-name="slash" unicode="/" horiz-adv-x="363" 
d="M363 730l-292 -948h-71l291 948h72z" />
    <glyph glyph-name="zero" unicode="0" horiz-adv-x="645" 
d="M166 24.5q-66 43.5 -101 127t-35 199.5t35 198.5t101 126t157 43.5q90 0 156 -43.5t101 -126t35 -198.5t-35 -199.5t-101 -127t-156 -43.5q-91 0 -157 43.5zM399.5 126.5q23.5 69.5 23.5 224.5t-23.5 223.5t-76.5 68.5t-77 -69t-24 -223q0 -155 24 -224.5t77 -69.5
t76.5 69.5z" />
    <glyph glyph-name="one" unicode="1" horiz-adv-x="539" 
d="M178 126v432h-70l-8 47l211 98h55v-577q0 -66 73 -87l-8 -39h-319l-8 39q74 21 74 87z" />
    <glyph glyph-name="two" unicode="2" horiz-adv-x="628" 
d="M512 -23h-14q-16 11 -50.5 17t-68.5 6h-308v100q89 66 151 124.5t102 131.5t40 158q0 60 -30.5 95.5t-81.5 35.5q-35 0 -65.5 -20t-50 -58.5t-20.5 -92.5l-61 8q1 72 33 125.5t88.5 82.5t127.5 29q70 0 126 -24.5t88.5 -71t32.5 -109.5q0 -120 -84 -207t-231 -163v-4h60
q79 0 128 14.5t72 32t44 42.5l41 -19z" />
    <glyph glyph-name="three" unicode="3" horiz-adv-x="599" 
d="M157 -4.5q-51 14.5 -84 43.5t-33 71q0 33 19 54.5t52 21.5q34 0 50 -17.5t30 -51.5q13 -32 26.5 -47.5t42.5 -15.5q54 0 85.5 39t31.5 108q0 72 -37.5 115t-105.5 43h-26v63h25q48 0 76 34.5t28 84.5q0 46 -28.5 74.5t-77.5 28.5q-47 0 -80 -35t-37 -99l-55 6
q7 93 71 148t167 55q67 0 116.5 -21t75.5 -57t26 -82q0 -50 -29.5 -88.5t-86.5 -59.5v-6q72 -15 117.5 -64t45.5 -118q0 -68 -34.5 -123t-102.5 -87t-163 -32q-54 0 -105 14.5z" />
    <glyph glyph-name="four" unicode="4" horiz-adv-x="639" 
d="M501 125q0 -65 74 -86l-8 -39h-320l-8 39q30 9 52 29.5t22 57.5v40h-269l-16 52l339 482h134v-463h111l-18 -71h-93v-41zM313 498h-6l-182 -257v-4h188v261z" />
    <glyph glyph-name="five" unicode="5" horiz-adv-x="583" 
d="M422 429.5q60 -28.5 91 -79t31 -115.5q0 -72 -33.5 -130t-98.5 -91t-156 -33q-52 0 -102 14t-82.5 42.5t-32.5 69.5q0 33 19.5 54t48.5 21q37 0 52.5 -14.5t28.5 -45.5q9 -21 17.5 -34.5t27 -22.5t50.5 -9q57 0 91.5 34t34.5 92q0 37 -20 67.5t-58 49t-91 18.5
q-36 0 -73 -9.5t-67 -28.5l-46 12v409h328q33 0 55.5 5.5t35.5 19.5h14l-24 -166l-336 1v-131q30 15 72.5 22t79.5 7q83 0 143 -28.5z" />
    <glyph glyph-name="six" unicode="6" horiz-adv-x="612" 
d="M486.5 427q48.5 -32 72 -85.5t23.5 -117.5q0 -68 -35.5 -123.5t-98.5 -87.5t-143 -32q-82 0 -144.5 39t-96.5 111.5t-34 169.5q0 138 59 232t160.5 140t231.5 46l1 -59q-89 0 -156.5 -62t-93.5 -187h4q20 20 56 34t75 14q71 0 119.5 -32zM371 92.5q21 44.5 21 131.5
q0 72 -21.5 108.5t-69.5 36.5q-22 0 -45 -14.5t-37 -39.5q-1 -16 -1 -51q0 -115 19.5 -165.5t67.5 -50.5q45 0 66 44.5z" />
    <glyph glyph-name="seven" unicode="7" horiz-adv-x="616" 
d="M442 435q-43 -71 -68 -156t-25 -194q0 -54 -28.5 -79t-68.5 -25q-44 0 -70.5 29.5t-26.5 74.5q0 131 85 254t202 215v5h-105q-78 0 -127.5 -15.5t-72 -34t-43.5 -43.5l-42 20l69 239h15q28 -25 142 -25h283v-96q-76 -98 -119 -169z" />
    <glyph glyph-name="eight" unicode="8" horiz-adv-x="616" 
d="M156 6.5q-60 25.5 -93 69.5t-33 96q0 119 123 185v5q-45 31 -68.5 68t-23.5 96q0 52 32.5 96.5t91.5 70.5t135 26q74 0 127 -23.5t80 -61.5t27 -80q0 -110 -105 -164v-5q66 -37 101.5 -78.5t35.5 -113.5q0 -62 -36.5 -110t-102.5 -75t-152 -27q-79 0 -139 25.5z
M415.5 487q21.5 31 21.5 70q0 41 -24 65.5t-71 24.5q-43 0 -68 -20.5t-25 -59.5q0 -44 28.5 -75t79.5 -58q37 22 58.5 53zM368 77.5q30 24.5 30 68.5q0 40 -22 69.5t-55 50.5t-85 46q-36 -23 -57.5 -59t-21.5 -82q0 -54 34.5 -86t93.5 -32q53 0 83 24.5z" />
    <glyph glyph-name="nine" unicode="9" horiz-adv-x="612" 
d="M452 680q62 -39 96 -111.5t34 -169.5q0 -138 -59 -232t-161 -140t-231 -46l-1 59q89 0 156.5 62t93.5 187h-4q-20 -20 -56 -34t-75 -14q-71 0 -119.5 32t-72 85.5t-23.5 117.5q0 68 35.5 123.5t98.5 87.5t143 32q83 0 145 -39zM355.5 346q23.5 15 37.5 40q1 16 1 50
q0 115 -19.5 165.5t-67.5 50.5q-88 0 -88 -176q0 -72 22 -108.5t70 -36.5q21 0 44.5 15z" />
    <glyph glyph-name="colon" unicode=":" horiz-adv-x="285" 
d="M67 333q-31 29 -31 75t31 75.5t76 29.5t75.5 -29.5t30.5 -75.5t-31 -75t-75 -29q-45 0 -76 29zM67 10q-31 29 -31 75t31 75.5t76 29.5t75.5 -29.5t30.5 -75.5t-31 -75t-75 -29q-45 0 -76 29z" />
    <glyph glyph-name="semicolon" unicode=";" horiz-adv-x="301" 
d="M69.5 333.5q-30.5 29.5 -30.5 76.5q0 46 30.5 74.5t75.5 28.5q44 0 75 -29.5t31 -75.5t-31 -75t-75 -29q-45 0 -75.5 29.5zM233.5 137q31.5 -35 31.5 -95q0 -79 -47 -150t-123 -109l-35 51q44 30 70.5 67.5t40.5 85.5l-3 4q-17 -10 -31 -10q-41 0 -69.5 27t-28.5 69
t33 68.5t80 26.5q50 0 81.5 -35z" />
    <glyph glyph-name="less" unicode="&#x3c;" horiz-adv-x="568" 
d="M29 372l510 210v-70l-420 -174v-4l420 -173v-71l-510 211v71z" />
    <glyph glyph-name="equal" unicode="=" horiz-adv-x="546" 
d="M538 482v-66h-530v66h530zM538 283v-64h-530v64h530z" />
    <glyph glyph-name="greater" unicode="&#x3e;" horiz-adv-x="568" 
d="M448 334v4l-419 174v70l509 -210v-71l-509 -211v71z" />
    <glyph glyph-name="question" unicode="?" horiz-adv-x="524" 
d="M182 431q97 0 160 14t63 63q0 32 -20.5 63.5t-55 52t-74.5 20.5q-31 0 -47 -13.5t-32 -40.5q-17 -28 -33.5 -42t-50.5 -14q-32 0 -53 22t-21 52q0 53 50.5 82t131.5 29q73 0 144 -34.5t116 -89t45 -111.5q0 -74 -38.5 -113t-97 -52t-136.5 -14v-58h-96v184h45zM112.5 10
q-30.5 29 -30.5 76q0 46 31 75t75 29t75 -29.5t31 -74.5q0 -47 -31 -76t-75 -29q-45 0 -75.5 29z" />
    <glyph glyph-name="at" unicode="@" horiz-adv-x="940" 
d="M275 -129.5q-106 47.5 -172 144t-72 235.5q-6 126 58.5 226.5t174 157.5t233.5 57q116 0 210 -42.5t148 -124t54 -194.5q0 -85 -35.5 -150.5t-97 -101.5t-135.5 -36q-85 0 -112 76h-5q-23 -34 -64 -55t-85 -21q-50 0 -90 22.5t-63 62.5t-23 93q0 25 6 52q19 97 88.5 153
t166.5 56q41 0 73 -16.5t47 -43.5h6l32 60h128l-67 -307q-1 -5 -1 -14q0 -17 8.5 -27t25.5 -10q32 0 64 27.5t52 76t20 107.5q0 100 -47 168t-126 100.5t-175 32.5q-109 0 -204.5 -48t-151 -136t-50.5 -201q6 -120 61.5 -204t147 -126t203.5 -42q78 0 153 27l18 -54
q-79 -28 -169 -28q-127 0 -233 47.5zM485 135q23 17 36 51l41 180q-5 18 -23.5 29.5t-42.5 11.5q-45 0 -78.5 -35t-49.5 -110q-8 -35 -8 -67q0 -41 18 -59t55 -18q29 0 52 17z" />
    <glyph glyph-name="A" unicode="A" horiz-adv-x="716" 
d="M674.5 68q22.5 -22 48.5 -29l-8 -39h-286l-8 39q27 10 27 41q0 18 -11 46l-14 36h-255l-14 -36q-11 -27 -11 -45q0 -32 27 -42l-8 -39h-161l-8 39q26 7 49 29.5t37 57.5l178 443q-18 33 -57 63l5 40q50 2 99.5 14.5t82.5 35.5h8l242 -596q15 -36 37.5 -58zM297 474h-4
l-93 -233h191z" />
    <glyph glyph-name="B" unicode="B" horiz-adv-x="720" 
d="M641 304q49 -49 49 -118q0 -62 -32 -108t-88.5 -70t-129.5 -24q-60 0 -144 8q-86 8 -154 8h-115l-8 39q24 7 37.5 29.5t13.5 58.5v446q0 36 -13.5 58.5t-37.5 29.5l8 39h401q60 0 109 -22t76.5 -61t27.5 -88q0 -54 -34.5 -95.5t-92.5 -58.5v-5q78 -17 127 -66zM258 622
v-214h83q50 0 80.5 31.5t30.5 80.5q0 47 -29.5 76.5t-82.5 29.5q-40 0 -82 -4zM468 107.5q34 37.5 34 95.5q0 61 -42.5 96t-102.5 35h-99v-249q56 -15 106 -15q70 0 104 37.5z" />
    <glyph glyph-name="C" unicode="C" horiz-adv-x="702" 
d="M196 28.5q-80 47.5 -123 132.5t-43 194q0 104 46 187t126 130t178 47q38 0 93 -11q40 -8 58 -8q46 0 84 19h14l46 -244l-47 -9q-29 79 -88 128.5t-138 49.5q-46 0 -89 -27t-69.5 -78.5t-26.5 -120.5q0 -94 33.5 -166t88 -111t116.5 -39q76 0 118.5 50t62.5 116l47 -12
q-8 -74 -44.5 -136.5t-101.5 -100.5t-153 -38q-108 0 -188 47.5z" />
    <glyph glyph-name="D" unicode="D" horiz-adv-x="742" 
d="M524.5 652.5q86.5 -47.5 137 -131.5t50.5 -188q0 -172 -97 -252.5t-257 -80.5h-331l-8 39q24 7 37.5 29.5t13.5 58.5v446q0 36 -13.5 58.5t-37.5 29.5l8 39h306q105 0 191.5 -47.5zM449 106.5q40 31.5 59 82.5t19 110q0 82 -26 156.5t-78.5 121.5t-127.5 47l-36 -1v-540
q43 -8 90 -8q60 0 100 31.5z" />
    <glyph glyph-name="E" unicode="E" horiz-adv-x="652" 
d="M588 -19h-14q-15 8 -63 13.5t-83 5.5h-401l-8 39q24 7 37.5 29.5t13.5 57.5v447q0 36 -13.5 58.5t-37.5 29.5l8 39h549l40 -175l-41 -15q-23 48 -80.5 81t-146.5 33q-40 0 -89 -9v-220h158q36 0 59 14t29 38l40 -8v-165l-40 -8q-6 24 -29 38t-58 14h-159v-232
q70 -11 112 -11q79 0 140.5 38.5t97.5 93.5l41 -19z" />
    <glyph glyph-name="F" unicode="F" horiz-adv-x="618" 
d="M576 510q-23 48 -81 81t-147 33q-53 0 -90 -4v-246h152q35 0 58 14t30 38l39 -8v-165l-39 -8q-7 24 -30 38t-58 14h-152v-171q0 -35 14 -57.5t38 -29.5l-8 -39h-275l-8 39q24 7 37.5 29.5t13.5 57.5v447q0 36 -13.5 58.5t-37.5 29.5l8 39h549l40 -175z" />
    <glyph glyph-name="G" unicode="G" horiz-adv-x="743" 
d="M695.5 296.5q-13.5 -22.5 -13.5 -57.5v-239h-45l-46 58h-3q-79 -77 -204 -77q-108 0 -188 47.5t-123 132.5t-43 194q0 104 46 187t126 130t178 47q38 0 93 -11q40 -8 58 -8q46 0 84 19h14l46 -244l-47 -9q-28 79 -87 128.5t-138 49.5q-48 0 -90.5 -30t-69 -84t-26.5 -124
q0 -96 30.5 -168t85.5 -111t125 -39q18 0 38 5v146q0 38 -15.5 58t-48.5 29l8 39h285l8 -39q-24 -7 -37.5 -29.5z" />
    <glyph glyph-name="H" unicode="H" horiz-adv-x="772" 
d="M715.5 68.5q14.5 -22.5 37.5 -29.5l-8 -39h-274l-8 39q23 7 37 29.5t14 57.5v186h-256v-186q0 -35 14 -57.5t38 -29.5l-8 -39h-275l-8 39q24 7 37.5 29.5t13.5 57.5v447q0 36 -13.5 58.5t-37.5 29.5l8 39h274l9 -39q-24 -7 -38 -29.5t-14 -58.5v-175h256v175
q0 36 -14 58.5t-37 29.5l8 39h274l8 -39q-23 -7 -37.5 -30t-14.5 -58v-447q0 -35 14.5 -57.5z" />
    <glyph glyph-name="I" unicode="I" horiz-adv-x="329" 
d="M56.5 68.5q13.5 22.5 13.5 57.5v447q0 36 -13.5 58.5t-37.5 29.5l8 39h275l8 -39q-24 -7 -37.5 -29.5t-13.5 -58.5v-447q0 -35 13.5 -57.5t37.5 -29.5l-8 -39h-275l-8 39q24 7 37.5 29.5z" />
    <glyph glyph-name="J" unicode="J" horiz-adv-x="341" 
d="M-113.5 -185q-42.5 31 -42.5 79q0 34 22.5 56t55.5 22q37 0 54.5 -16.5t30.5 -46.5q10 -20 17 -28.5t20 -8.5q24 0 34 33t10 104v564q0 36 -14 58.5t-38 29.5l9 39h274l8 -39q-24 -7 -37.5 -29.5t-13.5 -58.5v-524q0 -140 -73.5 -202.5t-189.5 -62.5q-84 0 -126.5 31z
" />
    <glyph glyph-name="K" unicode="K" horiz-adv-x="771" 
d="M779 39l-8 -39h-310l-7 39q12 4 18.5 13.5t6.5 23.5q0 22 -17 50l-132 217h-6l-65 -59v-158q0 -35 13.5 -57.5t37.5 -29.5l-8 -39h-275l-8 39q24 7 37.5 29.5t13.5 57.5v447q0 36 -13.5 58.5t-37.5 29.5l8 39h275l8 -39q-24 -7 -37.5 -29.5t-13.5 -58.5v-173h6l189 173
q32 29 32 52q0 13 -8 22.5t-19 13.5l8 39h256l8 -39q-32 -7 -73.5 -30t-79.5 -58l-108 -98l212 -349q46 -74 97 -87z" />
    <glyph glyph-name="L" unicode="L" horiz-adv-x="634" 
d="M564 -19h-15q-14 8 -62 13.5t-83 5.5h-377l-8 39q24 7 37.5 29.5t13.5 57.5v447q0 36 -13.5 58.5t-37.5 29.5l8 39h275l8 -39q-24 -7 -37.5 -29.5t-13.5 -58.5v-491q53 -7 87 -7q79 0 142.5 43t102.5 104l41 -19z" />
    <glyph glyph-name="M" unicode="M" horiz-adv-x="901" 
d="M53.5 68q16.5 22 20.5 58l57 447q1 6 1 17q0 29 -11 47t-30 24l8 39h205l148 -410h6l149 410h197l7 -39q-19 -6 -30 -23.5t-11 -44.5q0 -12 1 -18l56 -449q4 -36 20.5 -58t40.5 -29l-8 -39h-271l-8 39q19 6 30 24t11 46q0 11 -1 17l-40 312h-9l-159 -438h-70l-160 442h-7
l-41 -316q-1 -6 -1 -17q0 -28 11 -46t30 -24l-7 -39h-167l-8 39q24 7 40.5 29z" />
    <glyph glyph-name="N" unicode="N" horiz-adv-x="712" 
d="M659.5 631q-14.5 -23 -14.5 -58v-573h-90q-15 46 -43 84.5t-62 69.5t-89 76q-77 63 -126 112t-84 113h-4v-329q0 -35 13.5 -57.5t37.5 -29.5l-8 -39h-163l-8 39q24 7 37.5 29.5t13.5 57.5v447q0 36 -13.5 58.5t-37.5 29.5l8 39h156q48 -82 101.5 -138.5t129.5 -123.5
q58 -52 92.5 -88.5t58.5 -80.5h5v304q0 36 -14 58.5t-38 29.5l8 39h164l7 -39q-23 -7 -37.5 -30z" />
    <glyph glyph-name="O" unicode="O" horiz-adv-x="764" 
d="M208.5 27.5q-81.5 46.5 -130 130t-48.5 189.5q0 109 43.5 193.5t123 131.5t184.5 47q94 0 175 -48t129.5 -133t48.5 -193q0 -107 -46 -189.5t-126 -128.5t-179 -46q-93 0 -174.5 46.5zM491 81q28 26 43.5 67.5t15.5 88.5q0 86 -28 181.5t-79.5 160.5t-117.5 65
q-36 0 -64 -25.5t-43.5 -68t-15.5 -90.5q0 -94 28 -188.5t79 -155.5t117 -61q37 0 65 26z" />
    <glyph glyph-name="P" unicode="P" horiz-adv-x="736" 
d="M581.5 668.5q66.5 -31.5 103 -85t36.5 -118.5q0 -66 -37 -122t-110 -89.5t-176 -33.5q-71 0 -139 10v-104q0 -35 13.5 -57.5t37.5 -29.5l-8 -39h-275l-8 39q24 7 38 29.5t14 57.5v447q0 36 -14 58.5t-38 29.5l8 39h401q87 0 153.5 -31.5zM457.5 323q37.5 24 55.5 62
t18 79q0 43 -24 80t-65.5 58.5t-90.5 21.5q-52 0 -92 -8v-304q50 -13 104 -13q57 0 94.5 24z" />
    <glyph glyph-name="Q" unicode="Q" horiz-adv-x="765" 
d="M631.5 -42.5q35.5 16.5 55.5 40.5l34 -24q-18 -63 -62 -107t-111 -44q-46 0 -79 15.5t-79 46.5q-45 31 -78.5 46.5t-80.5 15.5q-34 0 -67.5 -15t-57.5 -37l-32 42q17 26 51.5 51.5t82.5 35.5v4q-81 48 -129.5 131t-48.5 188q0 110 43.5 194.5t123.5 131.5t185 47
q94 0 175 -48t129.5 -133t48.5 -193q0 -99 -40 -178.5t-110.5 -127.5t-159.5 -57v-4q35 -19 61.5 -28.5t63.5 -9.5q46 0 81.5 16.5zM262 619.5q-28 -25.5 -43.5 -68t-15.5 -91.5q0 -94 28 -188t79 -155t117 -61q37 0 65 26t43.5 67.5t15.5 88.5q0 86 -28 181.5t-79.5 160.5
t-117.5 65q-36 0 -64 -25.5z" />
    <glyph glyph-name="R" unicode="R" horiz-adv-x="779" 
d="M664 -18q-61 0 -110.5 27.5t-70.5 108.5q-17 73 -35.5 108t-51.5 49.5t-96 14.5h-42v-164q0 -35 14 -57.5t38 -29.5l-8 -39h-275l-8 39q24 7 37.5 29.5t13.5 57.5v447q0 36 -13.5 58.5t-37.5 29.5l8 39h388q88 0 156 -24t106 -70t38 -108q0 -70 -43.5 -118.5
t-127.5 -70.5v-8q47 -6 74 -25t40.5 -47.5t27.5 -77.5q11 -41 19.5 -61.5t26.5 -32.5t50 -10l4 -44q-66 -21 -122 -21zM258 617v-247h101q86 0 126 33t40 88q0 62 -48 97.5t-129 35.5q-48 0 -90 -7z" />
    <glyph glyph-name="S" unicode="S" horiz-adv-x="673" 
d="M289.5 -14.5q-23.5 4.5 -60.5 14.5q-53 15 -84 15q-30 0 -55 -15h-15l-51 225l46 16q38 -82 108 -138t155 -56q56 0 92 28.5t36 71.5q0 37 -23.5 61.5t-57.5 38.5t-97 34q-75 24 -122 47t-80 67t-33 114q0 67 35.5 114t95.5 71.5t132 24.5q37 0 66.5 -5t60.5 -14
q42 -11 62 -11q27 0 47 11h17l47 -201l-45 -11q-34 75 -96.5 119.5t-137.5 44.5q-50 0 -80 -25t-30 -63q0 -33 23 -54t56.5 -33.5t95.5 -30.5q78 -22 127.5 -44.5t84 -66.5t34.5 -116t-40 -126t-108.5 -83t-152.5 -29q-29 0 -52.5 4.5z" />
    <glyph glyph-name="T" unicode="T" horiz-adv-x="725" 
d="M676 486q-33 54 -90 94t-129 44v-498q0 -36 14 -58t38 -29l-8 -39h-275l-8 39q24 7 37.5 29t13.5 58v499q-72 -4 -129 -44t-91 -95l-41 20l62 213h14q15 -8 61.5 -13.5t80.5 -5.5h272q35 0 81 5.5t62 13.5h14l62 -213z" />
    <glyph glyph-name="U" unicode="U" horiz-adv-x="667" 
d="M181 8.5q-70 28.5 -113 85.5t-43 140q0 18 1 28l28 311q3 36 -9 58.5t-34 29.5l8 39h274l8 -39q-24 -7 -39.5 -29.5t-18.5 -58.5l-28 -310q-1 -7 -1 -22q0 -55 24 -96.5t63.5 -64.5t85.5 -23q50 0 90 22.5t63.5 64.5t23.5 97q0 14 -1 22l-26 309q-4 36 -20 59t-41 29
l8 40h164l8 -40q-23 -6 -34.5 -29t-9.5 -58l28 -311q1 -8 1 -25q0 -77 -41 -135.5t-111 -90t-155 -31.5q-83 0 -153 28.5z" />
    <glyph glyph-name="V" unicode="V" horiz-adv-x="691" 
d="M651.5 632q-20.5 -22 -32.5 -58l-172 -512q9 -20 27 -42l-6 -20l-26 1q-86 0 -162 -20h-9l-198 593q-12 35 -33.5 57.5t-46.5 29.5l9 39h284l8 -39q-29 -10 -29 -48q0 -18 7 -39l132 -394h6l134 394q8 24 8 40q0 18 -8 30t-22 17l8 39h160l8 -39q-26 -7 -46.5 -29z" />
    <glyph glyph-name="W" unicode="W" horiz-adv-x="1040" 
d="M1001.5 631.5q-20.5 -22.5 -31.5 -57.5l-155 -523q8 -14 20 -30l-7 -20q-74 0 -127.5 -7.5t-67.5 -12.5h-16l-98 383h-6l-99 -309q7 -15 23 -35l-7 -20l-27 1q-89 0 -167 -20h-9l-161 593q-10 35 -29 57.5t-44 29.5l10 39h288l6 -39q-15 -5 -24 -19t-9 -34q0 -18 5 -34
l106 -394h5l103 321l-12 49q-2 8 -7 30.5t-16 41t-32 38.5l12 40q52 -2 105.5 3.5t90.5 19.5h8l139 -543h7l117 394q6 21 6 37q0 20 -8 32.5t-23 17.5l7 39h161l9 -39q-25 -7 -45.5 -29.5z" />
    <glyph glyph-name="X" unicode="X" horiz-adv-x="697" 
d="M650 67q23 -21 49 -28l-8 -39h-303l-8 39q12 4 18.5 13.5t6.5 23.5q0 22 -17 50l-101 160h-8l-102 -160q-17 -28 -17 -51q0 -28 25 -36l-8 -39h-171l-8 39q27 7 49.5 28t45.5 59l148 234l-134 213q-23 38 -46.5 59.5t-49.5 28.5l8 39h303l8 -39q-11 -4 -17.5 -13.5
t-6.5 -23.5q0 -23 17 -51l85 -135h8l86 135q18 30 18 51q0 14 -7 23.5t-19 13.5l9 39h170l8 -39q-26 -7 -49 -28.5t-46 -59.5l-132 -209l150 -238q23 -38 46 -59z" />
    <glyph glyph-name="Y" unicode="Y" horiz-adv-x="677" 
d="M230 68q14 22 14 58v198l-156 249q-46 75 -95 88l7 39h303l8 -39q-11 -4 -17.5 -13.5t-6.5 -23.5q0 -23 17 -51l97 -152h7l97 152q18 30 18 51q0 14 -7 23.5t-19 13.5l8 39h171l8 -39q-26 -7 -49 -28.5t-46 -59.5l-157 -250v-197q0 -36 13.5 -58t37.5 -29l-8 -39h-275
l-7 39q23 7 37 29z" />
    <glyph glyph-name="Z" unicode="Z" horiz-adv-x="659" 
d="M508.5 -6q-46.5 6 -80.5 6h-396l-8 44l364 581h-78q-78 0 -140.5 -42t-99.5 -102l-41 20l64 218h15q14 -8 60.5 -13.5t81.5 -5.5h363l8 -44l-364 -582h111q78 0 141 47t101 114l42 -20l-68 -235h-14q-15 8 -61.5 14z" />
    <glyph glyph-name="bracketleft" unicode="[" horiz-adv-x="362" 
d="M340 715v-54h-146v-809h146v-54h-281v917h281z" />
    <glyph glyph-name="backslash" unicode="\" horiz-adv-x="363" 
d="M71 730l292 -948h-72l-291 948h71z" />
    <glyph glyph-name="bracketright" unicode="]" horiz-adv-x="362" 
d="M168 -148v809h-145v54h281l-1 -917h-281v54h146z" />
    <glyph glyph-name="asciicircum" unicode="^" horiz-adv-x="547" 
d="M307 700l202 -299h-66l-169 153l-169 -153h-66l202 299h66z" />
    <glyph glyph-name="underscore" unicode="_" horiz-adv-x="530" 
d="M531 -39v-55h-531v55h531z" />
    <glyph glyph-name="grave" unicode="`" horiz-adv-x="538" 
d="M88 681q-11 15 -11 36q0 19 14.5 33t35.5 14t36 -9.5t32 -30.5l104 -129l-40 -31l-140 90q-20 12 -31 27z" />
    <glyph glyph-name="a" unicode="a" horiz-adv-x="577" 
d="M552 -9.5q-32 -9.5 -63 -9.5q-44 0 -79.5 18.5t-50.5 66.5h-6q-23 -45 -67.5 -65t-93.5 -20q-73 0 -121.5 38.5t-48.5 103.5q0 66 42 105t102.5 58.5t152.5 36.5l-12 80q-4 30 -20.5 46.5t-39.5 16.5q-20 0 -34.5 -11.5t-14.5 -30.5q0 -6 1 -9q2 -12 2 -16
q0 -29 -21.5 -47t-52.5 -18q-34 0 -53.5 21t-19.5 57q0 33 22.5 62.5t69.5 48t116 18.5q89 0 149 -49t73 -148l26 -208q5 -40 19 -62.5t37 -22.5q13 0 26 6l14 -35q-22 -22 -54 -31.5zM318.5 103.5q24.5 28.5 23.5 63.5l-16 106q-140 -31 -140 -119q0 -37 22 -58t56 -21
q30 0 54.5 28.5z" />
    <glyph glyph-name="b" unicode="b" horiz-adv-x="634" 
d="M490 505q56 -36 88 -100t32 -145t-30 -144.5t-84.5 -99t-126.5 -35.5q-57 0 -101 26t-74 71h-1q-51 -30 -92 -78h-42v573q0 35 -13.5 57.5t-37.5 29.5l8 39q53 8 107 28t98 49l13 -5q-15 -59 -15 -168v-123h6q26 30 63 45.5t77 15.5q69 0 125 -36zM432.5 99
q25.5 38 25.5 94q0 50 -16 113t-48.5 109t-80.5 46q-42 0 -67 -37t-25 -97q0 -53 15.5 -115t48.5 -106.5t81 -44.5q41 0 66.5 38z" />
    <glyph glyph-name="c" unicode="c" horiz-adv-x="550" 
d="M162 20q-66 39 -102 103.5t-36 138.5q0 85 37.5 148.5t102 97t142.5 33.5q65 0 119 -22.5t85.5 -60.5t31.5 -82q0 -31 -23.5 -55t-54.5 -24q-32 0 -50.5 12.5t-28 30t-19.5 47.5q-14 42 -30.5 63t-55.5 21q-25 0 -47 -17t-36 -48t-14 -71q0 -111 48 -170t138 -59
q44 0 82.5 23.5t59.5 53.5l32 -12q-14 -84 -69 -137t-161 -53q-85 0 -151 39z" />
    <glyph glyph-name="d" unicode="d" horiz-adv-x="643" 
d="M587.5 68.5q13.5 -22.5 37.5 -29.5l-8 -39q-94 -3 -153 -20h-13l-17 69h-7q-33 -37 -70.5 -52.5t-87.5 -15.5q-69 0 -125 36t-88 100t-32 145t30 144.5t84.5 99t126.5 35.5q85 0 143 -63h7v95q0 35 -14 57.5t-38 29.5l8 39q114 18 204 77l12 -5q-13 -55 -13 -168v-477
q0 -35 13.5 -57.5zM388 98q25 37 25 96q0 53 -15.5 115.5t-48 107t-80.5 44.5q-42 0 -67 -38.5t-25 -94.5q0 -50 15.5 -113t48 -108.5t80.5 -45.5q42 0 67 37z" />
    <glyph glyph-name="e" unicode="e" horiz-adv-x="592" 
d="M460.5 130.5q37.5 24.5 57.5 54.5l32 -12q-5 -50 -35.5 -94t-83.5 -71t-120 -27q-84 0 -149.5 38.5t-101.5 103t-36 139.5q0 84 37 147.5t101.5 97.5t142.5 34q79 0 137 -37t82 -98q13 -33 35 -37l9 -49l-362 -105q42 -109 172 -109q45 0 82.5 24.5zM216.5 425
q-28.5 -39 -28.5 -93q0 -26 3 -50l193 56q-3 49 -28.5 87.5t-69.5 38.5q-41 0 -69.5 -39z" />
    <glyph glyph-name="f" unicode="f" horiz-adv-x="418" 
d="M223 618.5q10 -27.5 26 -62.5q7 -14 15 -34h157v-79h-145v-317q0 -36 13.5 -58.5t37.5 -28.5l-8 -39h-247l-8 39q24 6 37.5 28.5t13.5 58.5v317h-97v79h94l-7 37q-10 46 -10 70q0 44 21.5 81t62 59t97.5 22q41 0 75 -16t54 -43.5t20 -60.5q0 -31 -17.5 -51t-47.5 -20
q-34 0 -47.5 16t-22.5 47q-7 24 -15.5 36t-27.5 12q-17 0 -25.5 -12t-8.5 -32q0 -21 10 -48.5z" />
    <glyph glyph-name="g" unicode="g" horiz-adv-x="579" 
d="M511.5 60.5q51.5 -31.5 51.5 -98.5q0 -89 -82.5 -137.5t-208.5 -48.5q-107 0 -177.5 26.5t-70.5 91.5q0 53 53 82v4q-52 30 -52 97q0 41 22.5 70t59.5 41v5q-69 56 -69 149q0 59 30 104t85 70t128 25q38 0 78 -8q45 88 135 88q34 0 57.5 -16t23.5 -47q0 -27 -14 -45.5
t-43 -18.5q-14 0 -23 4.5t-20 13.5q-16 14 -29 14q-15 0 -29 -14q51 -25 79.5 -69t28.5 -104q0 -59 -30 -104t-84.5 -70t-127.5 -25q-68 0 -120 21q-10 -4 -16 -11t-6 -15q0 -24 45.5 -33.5t160.5 -9.5q113 0 164.5 -31.5zM214.5 446q-19.5 -24 -19.5 -62q0 -33 12 -74
t35.5 -70.5t57.5 -29.5q30 0 49 24t19 64q0 36 -11.5 76.5t-35 68t-56.5 27.5q-31 0 -50.5 -24zM351 -147q33 11 50.5 27t17.5 30q0 16 -9.5 23.5t-34.5 10t-77 2.5q-77 0 -129 7q-16 -7 -25.5 -19t-9.5 -26q0 -29 34 -47.5t105 -18.5q45 0 78 11z" />
    <glyph glyph-name="h" unicode="h" horiz-adv-x="628" 
d="M605 68q16 -22 41 -29l-8 -39h-247l-8 39q20 6 31.5 24t11.5 47q0 11 -1 16l-26 247q-4 42 -27 64.5t-56 22.5q-37 0 -62 -24t-25 -65v-245q0 -36 14 -58t39 -29l-9 -39h-247l-8 39q24 7 37.5 29t13.5 58v447q0 36 -13.5 58.5t-37.5 28.5l8 39q54 8 107.5 28.5t97.5 49.5
l12 -5q-14 -60 -14 -169v-120h8q20 26 54 42.5t75 16.5q86 0 138.5 -53t62.5 -161l18 -202q4 -36 20 -58z" />
    <glyph glyph-name="i" unicode="i" horiz-adv-x="303" 
d="M78 611.5q-26 26.5 -26 62.5t26 63.5t71 27.5q44 0 70.5 -27.5t26.5 -63.5t-26.5 -62.5t-70.5 -26.5q-45 0 -71 26.5zM59 68q14 22 14 58v217q0 35 -14 57.5t-38 29.5l8 39q105 16 189 73h15v-416q0 -36 13.5 -58t38.5 -29l-9 -39h-247l-8 39q24 7 38 29z" />
    <glyph glyph-name="j" unicode="j" horiz-adv-x="295" 
d="M81 611.5q-26 26.5 -26 62.5t26 63.5t70 27.5t70.5 -27.5t26.5 -63.5t-26.5 -62.5t-70.5 -26.5t-70 26.5zM-65.5 -192.5q-41.5 31.5 -41.5 80.5q0 28 20 48.5t51 20.5q28 0 42 -10.5t18.5 -25t7.5 -38.5q3 -27 10 -40.5t28 -13.5q18 0 28 21.5t10 50.5t-15 76
q-9 29 -13.5 52.5t-4.5 50.5v263q0 35 -13.5 57.5t-37.5 29.5l8 39q105 17 189 73h14l1 -571q0 -88 -47.5 -141.5t-142.5 -53.5q-70 0 -111.5 31.5z" />
    <glyph glyph-name="k" unicode="k" horiz-adv-x="636" 
d="M595.5 68q28.5 -22 56.5 -29l-8 -39h-276l-8 39q19 6 19 27q0 23 -24 60l-89 137h-7l-30 -34v-103q0 -36 14 -58t38 -29l-8 -39h-247l-8 39q23 7 37 29t14 58v447q0 36 -14 58.5t-37 28.5l8 39q53 8 106.5 28.5t97.5 49.5l13 -5q-14 -60 -14 -169v-259h7l82 95
q40 49 81 76t98 27t91 -27t34 -73q0 -43 -21.5 -70.5t-62.5 -27.5q-27 0 -42.5 10t-31.5 29q-11 14 -21 21t-25 7q-18 0 -43 -22l169 -263q23 -36 51.5 -58z" />
    <glyph glyph-name="l" unicode="l" horiz-adv-x="300" 
d="M56 68q14 22 14 58v447q0 36 -14 58.5t-38 28.5l9 39q53 8 106.5 28.5t97.5 49.5l13 -5q-14 -56 -14 -169v-477q0 -36 14 -58t38 -29l-8 -39h-247l-9 39q24 7 38 29z" />
    <glyph glyph-name="m" unicode="m" horiz-adv-x="930" 
d="M902.5 68.5q16.5 -22.5 41.5 -29.5l-8 -39h-248l-8 39q21 6 32.5 24t11.5 47q0 11 -1 16l-24 214q-5 49 -20 75.5t-50 26.5q-33 0 -52.5 -32t-20.5 -75v-7v-202q0 -35 13.5 -57.5t37.5 -29.5l-8 -39h-249l-8 39q24 7 37.5 29t13.5 58v214q0 45 -20.5 73.5t-58.5 28.5
t-61.5 -29.5t-23.5 -73.5v-213q0 -35 14 -57.5t38 -29.5l-8 -39h-247l-8 39q24 7 37.5 29t13.5 58v212q0 35 -13.5 57.5t-37.5 29.5l8 39q50 8 92 27t89 51h14l4 -91h7q56 91 148 91q52 0 91.5 -23t61.5 -68h5q51 91 146 91q160 0 180 -214l19 -202q3 -35 19.5 -57.5z" />
    <glyph glyph-name="n" unicode="n" horiz-adv-x="621" 
d="M598 68q16 -22 41 -29l-8 -39h-247l-9 39q21 6 32 24t11 47q0 10 -1 16l-22 214q-4 46 -25 74t-59 28q-37 0 -60 -29.5t-23 -72.5v-214q0 -35 14.5 -57.5t38.5 -29.5l-8 -39h-247l-7 39q23 7 36.5 29t13.5 58v212q0 35 -13.5 57.5t-37.5 29.5l8 39q50 8 91.5 26.5
t88.5 51.5h14l4 -78h6q23 35 58 56.5t82 21.5q85 0 132.5 -52.5t57.5 -161.5l18 -202q4 -36 20 -58z" />
    <glyph glyph-name="o" unicode="o" horiz-adv-x="599" 
d="M155.5 17q-63.5 36 -97.5 100.5t-34 145.5t34 144.5t96 99t145 35.5t145.5 -36t96.5 -100t34 -146q0 -81 -33.5 -144.5t-95.5 -99t-144 -35.5q-83 0 -146.5 36zM400 98q21 37 21 96q0 42 -18.5 106t-54 112.5t-83.5 48.5q-44 0 -65.5 -36.5t-21.5 -96.5q0 -45 18.5 -109
t54 -111t84.5 -47q44 0 65 37z" />
    <glyph glyph-name="p" unicode="p" horiz-adv-x="638" 
d="M494 506q56 -36 88 -100.5t32 -145.5t-30 -144.5t-84.5 -99t-126.5 -35.5q-85 0 -143 63h-6v-123q0 -35 14 -57.5t37 -29.5l-7 -39h-247l-8 39q24 7 37.5 29.5t13.5 57.5v417q0 35 -14 57.5t-38 29.5l9 39q46 8 91.5 29t80.5 49h14l7 -68h6q32 37 66.5 52.5t82.5 15.5
q69 0 125 -36zM436.5 99q25.5 38 25.5 95q0 50 -16 113t-48.5 108.5t-80.5 45.5q-42 0 -67 -37t-25 -96q0 -53 15.5 -115.5t48 -107t80.5 -44.5q42 0 67.5 38z" />
    <glyph glyph-name="q" unicode="q" horiz-adv-x="634" 
d="M590 -136.5q14 -22.5 37 -29.5l-8 -39h-247l-8 39q24 7 38 29.5t14 57.5v121h-8q-26 -30 -62 -45.5t-77 -15.5q-69 0 -125 36t-88 99.5t-32 144.5q0 82 30 145.5t84.5 99.5t126.5 36q105 0 172 -100q59 33 98 80h41v-601q0 -35 14 -57.5zM388 98q25 37 25 96
q0 53 -15.5 115.5t-48 107t-80.5 44.5q-42 0 -67.5 -38.5t-25.5 -94.5q0 -50 16 -113t48.5 -108.5t80.5 -45.5q42 0 67 37z" />
    <glyph glyph-name="r" unicode="r" horiz-adv-x="495" 
d="M457 510.5q32 -31.5 32 -78.5q0 -41 -27 -69.5t-65 -28.5q-37 0 -53 15.5t-29 43.5q-7 18 -14.5 27t-21.5 9q-20 0 -35 -25t-15 -59v-219q0 -35 14.5 -57.5t38.5 -29.5l-9 -39h-247l-8 39q24 7 37.5 29.5t13.5 57.5v211q0 35 -13.5 58t-37.5 29l8 40q49 7 90 26t90 52h14
l5 -81h5q24 38 61.5 59.5t83.5 21.5q50 0 82 -31.5z" />
    <glyph glyph-name="s" unicode="s" horiz-adv-x="538" 
d="M238.5 -13.5q-25.5 5.5 -58.5 15.5q-5 1 -27.5 7.5t-38.5 7.5q-27 0 -46 -17h-13l-43 187l34 11q43 -69 109 -109t127 -40q35 0 57 15.5t22 43.5q0 33 -39.5 57.5t-107.5 46.5q-75 23 -126 64.5t-51 102.5q0 48 29 85.5t77.5 57.5t105.5 20q31 0 54 -6t55 -17
q14 -5 27 -9t24 -4q27 0 46 16h13l35 -167l-41 -12q-36 62 -88.5 97.5t-98.5 35.5q-31 0 -48.5 -14.5t-17.5 -36.5q0 -31 32.5 -50.5t94.5 -38.5q88 -28 139 -65.5t51 -104.5q0 -88 -66.5 -136.5t-170.5 -48.5q-25 0 -50.5 5.5z" />
    <glyph glyph-name="t" unicode="t" horiz-adv-x="414" 
d="M142.5 16.5q-40.5 35.5 -40.5 114.5v311h-90v56q68 20 120 64t83 107h49v-147h131v-80h-131v-314q0 -71 55 -71q12 0 29.5 3.5t29.5 8.5l15 -65q-23 -9 -62.5 -16t-68.5 -7q-79 0 -119.5 35.5z" />
    <glyph glyph-name="u" unicode="u" horiz-adv-x="643" 
d="M587 68.5q14 -22.5 38 -29.5l-8 -40q-97 -3 -156 -19h-13l-25 95h-4q-27 -42 -70 -68.5t-105 -26.5q-81 0 -131 54t-50 160v148q0 35 -14 58t-37 29l8 39q109 19 189 74h15v-361q0 -48 26 -74.5t68 -26.5q39 0 67 29.5t28 71.5v161q0 35 -13.5 58t-37.5 29l8 40
q107 17 188 73h15v-416q0 -35 14 -57.5z" />
    <glyph glyph-name="v" unicode="v" horiz-adv-x="542" 
d="M508 518.5q22 -23.5 22 -66.5q0 -27 -13 -61t-39 -90l-143 -301h-106l-135 337q-30 74 -89 87l7 40q51 8 93 27.5t68 50.5h15l147 -373h4l77 164q8 20 8 26q0 10 -6 17t-19 16q-20 16 -31 31t-11 42q0 35 23.5 56t62.5 21q43 0 65 -23.5z" />
    <glyph glyph-name="w" unicode="w" horiz-adv-x="795" 
d="M758 516q24 -26 24 -67q0 -27 -11 -59t-35 -89l-131 -301h-126l-76 228h-3l-78 -228h-148l-98 337q-11 37 -31.5 59t-47.5 28l8 40q52 8 98 28t76 50h14l103 -361h5l114 341h74l115 -341h5l65 153q6 17 6 24q0 9 -6 16t-20 18q-21 16 -32.5 31.5t-11.5 43.5q0 34 22 54.5
t60 20.5q42 0 66 -26z" />
    <glyph glyph-name="x" unicode="x" horiz-adv-x="643" 
d="M577.5 68.5q27.5 -22.5 55.5 -29.5l-8 -39h-277l-8 39q20 6 20 28q0 23 -24 59l-54 83h-6l-62 -83q-32 -41 -32 -64q0 -17 16 -23l-14 -39h-172l-2 39q60 14 119 87l103 135l-87 135q-23 36 -50.5 58t-56.5 30l8 38h278l7 -38q-19 -8 -19 -29q0 -23 23 -59l35 -52h5
l39 52q32 41 32 64q0 18 -16 24l14 38h172l3 -38q-30 -8 -60.5 -30t-58.5 -58l-80 -104l106 -166q24 -35 51.5 -57.5z" />
    <glyph glyph-name="y" unicode="y" horiz-adv-x="557" 
d="M522.5 513.5q25.5 -28.5 25.5 -68.5q0 -72 -44 -194q-71 -216 -180 -347q-51 -66 -99 -97t-106 -31q-43 0 -72.5 24.5t-29.5 62.5q0 35 23.5 57.5t57.5 22.5q26 0 40.5 -10.5t30.5 -29.5q5 -7 11 -12.5t12 -5.5q31 0 77 65q19 24 35 50h-35l-157 337q-17 36 -46.5 58
t-60.5 29l8 40q53 8 101 28.5t70 49.5h14l183 -386h6q27 62 40 115q12 33 16 52.5t3 35.5q-1 11 -7.5 18t-22.5 20q-22 16 -33.5 30.5t-11.5 39.5q0 34 24 54.5t61 20.5q41 0 66.5 -28.5z" />
    <glyph glyph-name="z" unicode="z" horiz-adv-x="543" 
d="M399 -5.5q-47 5.5 -80 5.5h-294l-8 46l285 407v6h-65q-106 0 -156 -103l-36 15l35 151h426l8 -46l-281 -401v-5h69q67 0 120 38.5t84 93.5l35 -18l-65 -203h-15q-15 8 -62 13.5z" />
    <glyph glyph-name="braceleft" unicode="{" horiz-adv-x="359" 
d="M231.5 -199q-52.5 16 -89 53t-36.5 96q0 14 1 22l17 156q1 4 1 13q0 38 -27.5 61t-74.5 23v66q47 0 74.5 23t27.5 62q0 9 -1 13l-17 155q-1 8 -1 22q0 59 36 96.5t88.5 53.5t104.5 16v-44q-41 0 -70.5 -18.5t-29.5 -60.5q0 -9 1 -14l19 -159q1 -8 1 -22q0 -62 -38.5 -100
t-98.5 -54v-4q60 -16 98.5 -54t38.5 -99q0 -14 -1 -22l-19 -160l-1 -13q0 -43 29.5 -61t70.5 -18v-44q-51 0 -103.5 16z" />
    <glyph glyph-name="bar" unicode="|" horiz-adv-x="340" 
d="M204 725v-941h-69v941h69z" />
    <glyph glyph-name="braceright" unicode="}" horiz-adv-x="359" 
d="M94.5 -153q29.5 18 29.5 61l-1 13l-19 160q-1 8 -1 22q0 61 38.5 99t98.5 54v4q-60 16 -98.5 54t-38.5 100q0 14 1 22l19 159q1 5 1 14q0 42 -30 60.5t-71 18.5v44q52 0 104.5 -16t89 -53.5t36.5 -96.5q0 -14 -1 -22l-18 -155q-5 -44 23 -71t78 -27v-66q-50 0 -78 -26.5
t-23 -70.5l18 -156q1 -8 1 -22q0 -59 -36.5 -96t-89 -53t-104.5 -16v44q42 0 71.5 18z" />
    <glyph glyph-name="asciitilde" unicode="~" horiz-adv-x="552" 
d="M297.5 280q-28.5 12 -67.5 36q-26 17 -43.5 25t-34.5 8q-27 0 -41 -14.5t-14 -53.5h-63q0 100 43.5 149t112.5 49q36 0 66 -12.5t67 -35.5q30 -17 47 -25t34 -8q26 0 40 14.5t14 53.5h60q0 -101 -43 -149.5t-113 -48.5q-36 0 -64.5 12z" />
    <glyph glyph-name="uni00A0" unicode="&#xa0;" horiz-adv-x="183" 
 />
    <glyph glyph-name="exclamdown" unicode="&#xa1;" horiz-adv-x="292" 
d="M69 539q-31 29 -31 75q0 47 31 76t75 29q45 0 76 -29t31 -76q0 -46 -31 -75t-76 -29q-44 0 -75 29zM69 7.5q-32 27.5 -32 90.5q0 34 5.5 62.5t18.5 71.5q16 57 25.5 104t12.5 116h94q3 -69 12.5 -116t25.5 -104q13 -43 18.5 -71.5t5.5 -62.5q0 -63 -32 -90.5t-77 -27.5
t-77 27.5z" />
    <glyph glyph-name="cent" unicode="&#xa2;" horiz-adv-x="601" 
d="M463 159.5q-45 -47.5 -121 -61.5v-98h-86v95q-65 7 -115 43t-77.5 90.5t-27.5 118.5q0 70 28.5 124.5t78.5 87t113 41.5v100h86v-100q76 -11 125.5 -53t49.5 -97q0 -29 -21.5 -51.5t-50.5 -22.5t-46 11.5t-26 27.5t-18 44q-13 39 -28.5 58.5t-52.5 19.5q-27 0 -53 -19.5
t-42.5 -52t-16.5 -69.5q0 -98 50.5 -151.5t131.5 -53.5q46 0 86 26t60 64l28 -11q-10 -63 -55 -110.5z" />
    <glyph glyph-name="sterling" unicode="&#xa3;" horiz-adv-x="744" 
d="M708.5 205q18.5 -32 18.5 -68q0 -80 -43.5 -118.5t-117.5 -38.5q-45 0 -86.5 22t-103.5 67q-36 -46 -89.5 -67.5t-104.5 -21.5q-76 0 -118 34.5t-42 86.5q0 36 21.5 64t56.5 42.5t74 14.5q33 0 70 -5q-5 26 -14.5 48.5t-24.5 50.5l-11 21h-133v86h100q-8 34 -8 74
q0 73 36.5 123t98.5 74.5t138 24.5q67 0 119 -21t80.5 -58.5t28.5 -84.5q0 -42 -22 -69.5t-59 -27.5q-36 0 -55.5 17.5t-19.5 43.5q0 8 2 17.5t3 13.5q5 15 5 25q0 27 -21 47t-55 20q-47 0 -72 -39t-25 -92q0 -44 17 -88h151v-86h-110q15 -30 23 -57t8 -58q0 -32 -6 -59
q60 -24 94.5 -34.5t70.5 -10.5q28 0 49 16t21 46q0 16 -8 28.5t-14 14.5l32 31q27 -17 45.5 -49zM218 87q20 20 26 57q-38 12 -70 12q-25 0 -44 -13.5t-19 -32.5t16 -31t40 -12q31 0 51 20z" />
    <glyph glyph-name="currency" unicode="&#xa4;" horiz-adv-x="660" 
d="M260 157q-35 10 -60 26l-95 -94l-83 83l94 94q-17 26 -26 60t-9 70t9.5 70t26.5 59l-95 96l83 83l95 -95q26 17 60 26.5t70 9.5q35 0 68.5 -9.5t60.5 -26.5l95 95l85 -85l-97 -93q17 -26 27 -60.5t10 -69.5q0 -34 -10 -68.5t-27 -61.5l96 -94l-84 -84l-95 95
q-27 -16 -60.5 -26t-68.5 -10t-70 10zM392 288q29 17 46 46t17 62q0 34 -17 63t-46 46t-62 17q-34 0 -63 -17t-46 -46t-17 -63q0 -33 17 -62t46 -46t63 -17q33 0 62 17z" />
    <glyph glyph-name="yen" unicode="&#xa5;" horiz-adv-x="707" 
d="M650.5 633q-22.5 -21 -46.5 -59l-112 -179h112v-76h-157v-77h157v-78h-157v-38q0 -35 14 -57.5t37 -29.5l-8 -39h-274l-8 39q23 7 37 29.5t14 57.5v38h-155v78h155v77h-155v76h111l-112 179q-24 38 -46.5 59t-48.5 28l8 39h303l8 -39q-12 -4 -18.5 -13.5t-6.5 -23.5
q0 -22 17 -50l98 -153h6l97 153q18 30 18 50q0 14 -7 23.5t-19 13.5l8 39h171l8 -39q-26 -7 -48.5 -28z" />
    <glyph glyph-name="brokenbar" unicode="&#xa6;" horiz-adv-x="340" 
d="M204 725v-408h-69v408h69zM204 191v-407h-69v407h69z" />
    <glyph glyph-name="section" unicode="&#xa7;" horiz-adv-x="510" 
d="M74 467q-44 38 -44 95q0 44 30.5 80t81 56.5t108.5 20.5q59 0 106.5 -19t74.5 -49t27 -62q0 -25 -16 -41.5t-44 -16.5q-27 0 -40 13.5t-26 40.5q-15 32 -33.5 49t-59.5 17q-39 0 -63.5 -20t-24.5 -50q0 -23 25 -39.5t53 -25.5t77 -22q90 -24 132 -62t42 -98
q-1 -53 -44 -100q44 -39 44 -96q0 -44 -30.5 -80.5t-81 -57t-108.5 -20.5q-62 0 -110.5 19t-76 49t-27.5 62q0 24 16 41.5t43 17.5t40 -12.5t28 -40.5q17 -33 37 -50.5t63 -17.5q39 0 62.5 19.5t23.5 51.5q1 32 -42.5 50.5t-112.5 35.5q-90 25 -132 62.5t-42 95.5
q0 56 44 104zM162 345.5q27 -23.5 84 -35.5q77 -17 120 -36q7 12 9 29q0 62 -111 87q-82 18 -122 37q-7 -14 -7 -28q0 -30 27 -53.5z" />
    <glyph glyph-name="dieresis" unicode="&#xa8;" horiz-adv-x="511" 
d="M93 607.5q-21 21.5 -21 51.5q0 31 21 53t58 22q36 0 58 -22.5t22 -52.5q0 -29 -21.5 -51t-58.5 -22t-58 21.5zM302.5 607.5q-21.5 21.5 -21.5 51.5t21.5 52.5t57.5 22.5t57.5 -22.5t21.5 -52.5t-21.5 -51.5t-57.5 -21.5t-57.5 21.5z" />
    <glyph glyph-name="copyright" unicode="&#xa9;" horiz-adv-x="792" 
d="M207 30.5q-87 49.5 -138 134.5t-51 185t51 184.5t138 134.5t189 50t188.5 -50t137.5 -134.5t51 -184.5t-50.5 -185t-137.5 -134.5t-189 -49.5t-189 49.5zM562.5 68q76.5 44 121 118.5t44.5 163.5q0 88 -44.5 162.5t-121 118.5t-166.5 44t-166.5 -44t-121 -118.5
t-44.5 -162.5q0 -89 44.5 -163.5t121 -118.5t166.5 -44t166.5 44zM279 146q-52 28 -81 82.5t-29 130.5q0 60 29 112t80 83.5t115 31.5q24 0 60 -6t60 -6h40l30 -148l-29 -7q-21 54 -59.5 85t-87.5 31q-60 0 -96 -51t-36 -126q0 -87 37 -134.5t98 -47.5q60 0 94 38.5t47 84.5
l40 -8q-6 -46 -31.5 -85.5t-67 -63.5t-94.5 -24q-67 0 -119 28z" />
    <glyph glyph-name="ordfeminine" unicode="&#xaa;" horiz-adv-x="291" 
d="M254 475.5q-15 -4.5 -29 -4.5q-46 0 -59 37h-2q-10 -19 -30 -28t-41 -9q-32 0 -53.5 17t-21.5 46t18.5 46.5t44 25.5t67.5 16q-3 26 -6 36q-1 13 -8 20t-16 7q-10 0 -16 -6t-4 -16q4 -16 -6.5 -26.5t-26.5 -10.5t-25 11t-8 27q1 22 24.5 38.5t67.5 16.5q41 0 67.5 -22.5
t32.5 -66.5l10 -90q4 -37 27 -37q5 0 11 3l6 -16q-9 -10 -24 -14.5zM149 526.5q10 11.5 9 26.5l-6 46q-59 -14 -59 -50q0 -16 9.5 -25t23.5 -9q13 0 23 11.5zM259 447v-52h-232v52h232z" />
    <glyph glyph-name="guillemotleft" unicode="&#xab;" horiz-adv-x="550" 
d="M37 272l210 226l41 -28l-101 -227l101 -228l-41 -27l-210 226v58zM262 272l211 226l41 -28l-101 -227l101 -228l-41 -27l-211 226v58z" />
    <glyph glyph-name="logicalnot" unicode="&#xac;" horiz-adv-x="541" 
d="M8 388v86h525v-235h-91v149h-434z" />
    <glyph glyph-name="uni00AD" unicode="&#xad;" horiz-adv-x="218" 
d="M210 280v-76h-202v76h202z" />
    <glyph glyph-name="registered" unicode="&#xae;" horiz-adv-x="441" 
d="M322 692.5q47 -26.5 74.5 -72t27.5 -99.5q0 -53 -27.5 -98.5t-74.5 -72t-102 -26.5t-101 26.5t-73.5 72t-27.5 98.5q0 54 27.5 99.5t73.5 72t101 26.5t102 -26.5zM301.5 383.5q37.5 21.5 59.5 58t22 79.5t-22 80t-59.5 58.5t-81.5 21.5t-81 -21.5t-59 -58.5t-22 -80
t22 -79.5t59 -58t81 -21.5t81.5 21.5zM305 418q-45 0 -56 39q-7 30 -15.5 39t-33.5 9h-8v-43q0 -22 15 -27l-2 -12h-84l-3 12q15 5 15 27v125q0 23 -15 26l3 12h116q39 0 63 -15.5t24 -42.5q0 -20 -12.5 -34.5t-37.5 -21.5v-2q20 -2 27.5 -12t14.5 -30q1 -3 3.5 -12.5
t7.5 -13.5t14 -3l1 -14q-16 -6 -37 -6zM192 600v-70h27q24 0 35 9.5t11 24.5q0 18 -13.5 28t-35.5 10q-10 0 -24 -2z" />
    <glyph glyph-name="macron" unicode="&#xaf;" horiz-adv-x="512" 
d="M411 687v-77h-309v77h309z" />
    <glyph glyph-name="degree" unicode="&#xb0;" horiz-adv-x="263" 
d="M51.5 528q-33.5 33 -33.5 78q0 47 33 80t80 33t80 -33t33 -80q0 -45 -33.5 -78t-79.5 -33t-79.5 33zM175 563q18 18 18 43q0 26 -18 44.5t-44 18.5t-44 -18.5t-18 -44.5q0 -25 18 -43t44 -18t44 18z" />
    <glyph glyph-name="plusminus" unicode="&#xb1;" horiz-adv-x="568" 
d="M8 319v66h242v242h66v-242h244v-66h-244v-212h-66v212h-242zM560 64v-64h-552v64h552z" />
    <glyph glyph-name="uni00B2" unicode="&#xb2;" horiz-adv-x="255" 
d="M206 421h-7q-6 3 -24.5 5.5t-32.5 2.5h-117v41q53 37 83.5 74t30.5 84q0 22 -12 36t-31 14q-21 0 -36.5 -18t-15.5 -49l-22 4q0 42 26.5 67.5t69.5 25.5t70.5 -21.5t27.5 -58.5q0 -46 -33 -79t-91 -62v-2h30q41 0 61 10t34 25l16 -8z" />
    <glyph glyph-name="uni00B3" unicode="&#xb3;" horiz-adv-x="251" 
d="M48.5 434.5q-27.5 13.5 -27.5 37.5q0 14 8 22t21 8q15 0 21.5 -7t11.5 -21q5 -12 10 -17.5t16 -5.5q21 0 33 14.5t12 41.5q0 28 -14.5 44t-40.5 16h-10v26h9q19 0 29.5 13t10.5 32q0 18 -11 29t-30 11q-18 0 -31 -13.5t-15 -37.5l-18 2q2 36 26.5 57t64.5 21
q41 0 64.5 -17t23.5 -45q0 -39 -47 -56v-3q29 -5 47.5 -24.5t18.5 -46.5q0 -41 -32 -67.5t-89 -26.5q-34 0 -61.5 13.5z" />
    <glyph glyph-name="acute" unicode="&#xb4;" horiz-adv-x="482" 
d="M276 724q16 20 31 30t37 10q21 0 35 -14t14 -33q0 -22 -11 -36.5t-30 -26.5l-141 -90l-38 31z" />
    <glyph glyph-name="uni00B5" unicode="&#xb5;" horiz-adv-x="657" 
d="M597 -8.5q-35 -10.5 -63 -10.5q-55 0 -86 18.5t-37 64.5h-4q-60 -83 -165 -83q-20 0 -40 3q29 -44 42.5 -69.5t13.5 -49.5q0 -45 -27 -68t-70 -23q-41 0 -69.5 27t-28.5 73v311v6v284h160v-296q0 -48 25 -73t68 -25q38 0 65.5 29.5t27.5 71.5v293h159l1 -363
q0 -43 32 -43q16 0 33 9l16 -61q-18 -15 -53 -25.5z" />
    <glyph glyph-name="paragraph" unicode="&#xb6;" horiz-adv-x="433" 
d="M-3 -188q-40 27 -40 70q0 27 19 44.5t45 17.5q27 0 42.5 -12.5t30.5 -36.5q15 -22 27 -32t33 -10q48 0 78.5 34.5t30.5 115.5v346q-75 0 -126 25t-75.5 65.5t-25.5 88.5q0 50 26.5 89.5t74 61t109.5 21.5h168l6 -30q-28 -8 -46 -30.5t-18 -56.5v-539q0 -135 -66.5 -197
t-177.5 -62q-75 0 -115 27z" />
    <glyph glyph-name="periodcentered" unicode="&#xb7;" horiz-adv-x="284" 
d="M66.5 289.5q-30.5 29.5 -30.5 75.5t30.5 75t75.5 29q44 0 75 -29t31 -75t-31 -75.5t-75 -29.5q-45 0 -75.5 29.5z" />
    <glyph glyph-name="cedilla" unicode="&#xb8;" horiz-adv-x="556" 
d="M171 -212q-36 23 -36 54q0 15 11 27t26 12q19 0 28 -8t18 -25q9 -18 19 -27t32 -9q25 0 40 13t15 35q0 14 -10 22t-24 8q-18 0 -32 -11l-34 16l58 134l59 -25l-31 -66q12 4 25 4q36 0 58 -17.5t22 -47.5q0 -29 -19.5 -55t-55 -41.5t-80.5 -15.5q-53 0 -89 23z" />
    <glyph glyph-name="uni00B9" unicode="&#xb9;" horiz-adv-x="203" 
d="M63 478v165h-27l-4 18l86 39h24v-222q0 -25 28 -34l-3 -15h-130l-3 15q29 10 29 34z" />
    <glyph glyph-name="ordmasculine" unicode="&#xba;" horiz-adv-x="265" 
d="M43.5 506q-33.5 35 -33.5 90q0 54 33.5 88.5t88.5 34.5q56 0 89.5 -34.5t33.5 -89.5t-33 -89.5t-89 -34.5t-89.5 35zM175.5 523.5q8.5 15.5 8.5 40.5q0 18 -8 46.5t-23 50t-36 21.5q-36 0 -36 -57q0 -19 8 -47t23.5 -49t36.5 -21q18 0 26.5 15.5zM249 447v-52h-232v52
h232z" />
    <glyph glyph-name="guillemotright" unicode="&#xbb;" horiz-adv-x="550" 
d="M138 243l-101 227l41 28l210 -226v-58l-210 -226l-41 27zM363 243l-101 227l41 28l211 -226v-58l-211 -226l-41 27z" />
    <glyph glyph-name="onequarter" unicode="&#xbc;" horiz-adv-x="342" 
d="M100 661l86 39h24v-222q0 -25 28 -34l-3 -15h-130l-3 15q29 10 29 34v165h-27zM338 324h-334v54h334v-54zM269 92l-7 -28h-36v-14q0 -26 29 -35l-3 -15h-131l-3 15q30 9 30 35v14h-113v21l135 186h56v-179h43zM148 189h-3l-70 -95v-2h73v97z" />
    <glyph glyph-name="onehalf" unicode="&#xbd;" horiz-adv-x="342" 
d="M100 661l86 39h24v-222q0 -25 28 -34l-3 -15h-130l-3 15q29 10 29 34v165h-27zM338 324h-334v54h334v-54zM234.5 66.5q20.5 10.5 32.5 24.5l16 -8l-27 -91h-6q-6 3 -24.5 5.5t-32.5 2.5h-118v41q54 37 84.5 74t30.5 84q0 22 -12 36t-32 14t-35.5 -18t-16.5 -49l-22 3
q1 43 27.5 68.5t68.5 25.5q43 0 71 -21.5t28 -58.5q0 -46 -33 -79t-91 -62v-2h29q42 0 62.5 10.5z" />
    <glyph glyph-name="threequarters" unicode="&#xbe;" horiz-adv-x="342" 
d="M91.5 434.5q-27.5 13.5 -27.5 37.5q0 14 8 22t21 8q15 0 21.5 -7t11.5 -21q5 -12 10 -17.5t16 -5.5q21 0 33 14.5t12 41.5q0 28 -14.5 44t-40.5 16h-10v26h9q19 0 29.5 13t10.5 32q0 18 -11 29t-30 11q-18 0 -31 -13.5t-15 -37.5l-18 2q2 36 26.5 57t64.5 21
q41 0 64.5 -17t23.5 -45q0 -39 -47 -56v-3q29 -5 47.5 -24.5t18.5 -46.5q0 -41 -32 -67.5t-89 -26.5q-34 0 -61.5 13.5zM338 324h-334v54h334v-54zM269 92l-7 -28h-36v-14q0 -26 29 -35l-3 -15h-131l-3 15q30 9 30 35v14h-113v21l135 186h56v-179h43zM148 189h-3l-70 -95v-2
h73v97z" />
    <glyph glyph-name="questiondown" unicode="&#xbf;" horiz-adv-x="524" 
d="M289 539.5q-31 29.5 -31 74.5q0 47 31 76t75 29q45 0 75.5 -29t30.5 -76q0 -46 -31 -75t-75 -29t-75 29.5zM208 15.5q-71 34.5 -116 89t-45 111.5q0 74 38.5 113t97 52t136.5 14v58h96v-184h-45q-97 0 -160 -14t-63 -63q0 -32 20.5 -63.5t55 -52t74.5 -20.5q31 0 47 13.5
t32 40.5q17 28 33.5 42t50.5 14q32 0 53 -22t21 -52q0 -52 -50.5 -81.5t-131.5 -29.5q-73 0 -144 34.5z" />
    <glyph glyph-name="Agrave" unicode="&#xc0;" horiz-adv-x="716" 
d="M164 858.5q-11 14.5 -11 36.5q0 19 15 33t37 14q21 0 34.5 -9.5t30.5 -30.5l104 -129l-39 -31l-141 90q-19 12 -30 26.5zM674.5 68q22.5 -22 48.5 -29l-8 -39h-286l-8 39q27 10 27 41q0 18 -11 46l-14 36h-255l-14 -36q-11 -27 -11 -45q0 -32 27 -42l-8 -39h-161l-8 39
q26 7 49 29.5t37 57.5l178 443q-18 33 -57 63l5 40q50 2 99.5 14.5t82.5 35.5h8l242 -596q15 -36 37.5 -58zM297 474h-4l-93 -233h191z" />
    <glyph glyph-name="Aacute" unicode="&#xc1;" horiz-adv-x="716" 
d="M258 773l103 129q18 21 32 31t35 10t36 -14.5t15 -33.5q0 -21 -11 -36t-31 -27l-140 -90zM674.5 68q22.5 -22 48.5 -29l-8 -39h-286l-8 39q27 10 27 41q0 18 -11 46l-14 36h-255l-14 -36q-11 -27 -11 -45q0 -32 27 -42l-8 -39h-161l-8 39q26 7 49 29.5t37 57.5l178 443
q-18 33 -57 63l5 40q50 2 99.5 14.5t82.5 35.5h8l242 -596q15 -36 37.5 -58zM297 474h-4l-93 -233h191z" />
    <glyph glyph-name="Acircumflex" unicode="&#xc2;" horiz-adv-x="716" 
d="M194 777l164 143l163 -143l-24 -40l-139 59l-139 -59zM674.5 68q22.5 -22 48.5 -29l-8 -39h-286l-8 39q27 10 27 41q0 18 -11 46l-14 36h-255l-14 -36q-11 -27 -11 -45q0 -32 27 -42l-8 -39h-161l-8 39q26 7 49 29.5t37 57.5l178 443q-18 33 -57 63l5 40q50 2 99.5 14.5
t82.5 35.5h8l242 -596q15 -36 37.5 -58zM297 474h-4l-93 -233h191z" />
    <glyph glyph-name="Atilde" unicode="&#xc3;" horiz-adv-x="716" 
d="M261.5 824.5q-11.5 -9.5 -15.5 -28.5l-52 13q7 61 35 87.5t64 26.5q21 0 39.5 -7t41.5 -20q20 -11 32 -16t25 -5q14 0 25 9t15 28l50 -12q-6 -62 -34 -88.5t-65 -26.5q-21 0 -38.5 7t-40.5 20q-17 11 -30 16.5t-26 5.5q-14 0 -25.5 -9.5zM674.5 68q22.5 -22 48.5 -29
l-8 -39h-286l-8 39q27 10 27 41q0 18 -11 46l-14 36h-255l-14 -36q-11 -27 -11 -45q0 -32 27 -42l-8 -39h-161l-8 39q26 7 49 29.5t37 57.5l178 443q-18 33 -57 63l5 40q50 2 99.5 14.5t82.5 35.5h8l242 -596q15 -36 37.5 -58zM297 474h-4l-93 -233h191z" />
    <glyph glyph-name="Adieresis" unicode="&#xc4;" horiz-adv-x="716" 
d="M195.5 785.5q-21.5 21.5 -21.5 51.5t21.5 52.5t57.5 22.5t58 -22.5t22 -52.5q0 -29 -21.5 -51t-58.5 -22q-36 0 -57.5 21.5zM404.5 785.5q-21.5 21.5 -21.5 51.5t21.5 52.5t57.5 22.5t58 -22.5t22 -52.5q0 -29 -21.5 -51t-58.5 -22q-36 0 -57.5 21.5zM674.5 68
q22.5 -22 48.5 -29l-8 -39h-286l-8 39q27 10 27 41q0 18 -11 46l-14 36h-255l-14 -36q-11 -27 -11 -45q0 -32 27 -42l-8 -39h-161l-8 39q26 7 49 29.5t37 57.5l178 443q-18 33 -57 63l5 40q50 2 99.5 14.5t82.5 35.5h8l242 -596q15 -36 37.5 -58zM297 474h-4l-93 -233h191z
" />
    <glyph glyph-name="Aring" unicode="&#xc5;" horiz-adv-x="716" 
d="M262.5 781q-31.5 31 -31.5 75q0 43 31.5 74.5t75.5 31.5t75.5 -31.5t31.5 -74.5q0 -44 -31.5 -75t-75.5 -31t-75.5 31zM306.5 887q-12.5 -13 -12.5 -31q0 -20 12.5 -33t31.5 -13t32 13.5t13 32.5q0 18 -13 31t-32 13t-31.5 -13zM674.5 68q22.5 -22 48.5 -29l-8 -39h-286
l-8 39q27 10 27 41q0 18 -11 46l-14 36h-255l-14 -36q-11 -27 -11 -45q0 -32 27 -42l-8 -39h-161l-8 39q26 7 49 29.5t37 57.5l178 443q-18 33 -57 63l5 40q50 2 99.5 14.5t82.5 35.5h8l242 -596q15 -36 37.5 -58zM297 474h-4l-93 -233h191z" />
    <glyph glyph-name="AE" unicode="&#xc6;" horiz-adv-x="1093" 
d="M1017 -19h-15q-15 8 -63.5 13.5t-81.5 5.5h-402l-8 39q24 7 37.5 29.5t13.5 57.5v36h-269l-26 -36q-27 -37 -27 -62q0 -19 17 -25l-8 -39h-175l-7 39q28 7 56.5 29t54.5 58l365 513q-11 16 -32 22l8 39h550l38 -175l-40 -15q-23 48 -80.5 81t-145.5 33q-41 0 -91 -9v-221
l159 1q36 0 59 13.5t29 37.5l40 -8v-164l-40 -8q-7 24 -30 38t-58 14h-159v-232q76 -10 113 -10q79 0 140.5 38t97.5 93l42 -19zM498 534h-5l-208 -292h213v292z" />
    <glyph glyph-name="Ccedilla" unicode="&#xc7;" horiz-adv-x="702" 
d="M642 126q-33 -60 -91.5 -99t-138.5 -45l-20 -44q12 4 25 4q36 0 58 -17.5t22 -47.5q0 -29 -19.5 -55t-55 -41.5t-80.5 -15.5q-53 0 -89 23t-36 54q0 15 11 27t26 12q19 0 28 -8.5t17 -24.5q9 -18 19.5 -27t32.5 -9q24 0 39 13t15 35q0 14 -9.5 22t-24.5 8q-19 0 -31 -11
l-35 16l38 88q-96 9 -167 58.5t-108.5 130.5t-37.5 183q0 104 46 187t126 130t178 47q38 0 93 -11q40 -8 58 -8q46 0 84 19h14l46 -244l-47 -9q-29 79 -88 128.5t-138 49.5q-46 0 -89 -27t-69.5 -78.5t-26.5 -120.5q0 -94 33.5 -166t88 -111t116.5 -39q76 0 118.5 50
t62.5 116l47 -12q-8 -70 -41 -130z" />
    <glyph glyph-name="Egrave" unicode="&#xc8;" horiz-adv-x="652" 
d="M225 859q-11 15 -11 36q0 19 14.5 33t35.5 14t36 -9.5t32 -30.5l104 -129l-40 -31l-140 90q-20 12 -31 27zM588 -19h-14q-15 8 -63 13.5t-83 5.5h-401l-8 39q24 7 37.5 29.5t13.5 57.5v447q0 36 -13.5 58.5t-37.5 29.5l8 39h549l40 -175l-41 -15q-23 48 -80.5 81
t-146.5 33q-40 0 -89 -9v-220h158q36 0 59 14t29 38l40 -8v-165l-40 -8q-6 24 -29 38t-58 14h-159v-232q70 -11 112 -11q79 0 140.5 38.5t97.5 93.5l41 -19z" />
    <glyph glyph-name="Eacute" unicode="&#xc9;" horiz-adv-x="652" 
d="M216 773l103 129q17 21 32 30.5t36 9.5t35.5 -14t14.5 -33q0 -21 -11 -36t-31 -27l-140 -90zM588 -19h-14q-15 8 -63 13.5t-83 5.5h-401l-8 39q24 7 37.5 29.5t13.5 57.5v447q0 36 -13.5 58.5t-37.5 29.5l8 39h549l40 -175l-41 -15q-23 48 -80.5 81t-146.5 33
q-40 0 -89 -9v-220h158q36 0 59 14t29 38l40 -8v-165l-40 -8q-6 24 -29 38t-58 14h-159v-232q70 -11 112 -11q79 0 140.5 38.5t97.5 93.5l41 -19z" />
    <glyph glyph-name="Ecircumflex" unicode="&#xca;" horiz-adv-x="652" 
d="M163 777l163 143l163 -143l-23 -40l-140 59l-139 -59zM588 -19h-14q-15 8 -63 13.5t-83 5.5h-401l-8 39q24 7 37.5 29.5t13.5 57.5v447q0 36 -13.5 58.5t-37.5 29.5l8 39h549l40 -175l-41 -15q-23 48 -80.5 81t-146.5 33q-40 0 -89 -9v-220h158q36 0 59 14t29 38l40 -8
v-165l-40 -8q-6 24 -29 38t-58 14h-159v-232q70 -11 112 -11q79 0 140.5 38.5t97.5 93.5l41 -19z" />
    <glyph glyph-name="Edieresis" unicode="&#xcb;" horiz-adv-x="652" 
d="M163.5 785.5q-21.5 21.5 -21.5 51.5t21.5 52.5t57.5 22.5t58 -22.5t22 -52.5q0 -29 -21.5 -51t-58.5 -22q-36 0 -57.5 21.5zM372.5 785.5q-21.5 21.5 -21.5 51.5t21.5 52.5t57.5 22.5t58 -22.5t22 -52.5q0 -29 -21.5 -51t-58.5 -22q-36 0 -57.5 21.5zM588 -19h-14
q-15 8 -63 13.5t-83 5.5h-401l-8 39q24 7 37.5 29.5t13.5 57.5v447q0 36 -13.5 58.5t-37.5 29.5l8 39h549l40 -175l-41 -15q-23 48 -80.5 81t-146.5 33q-40 0 -89 -9v-220h158q36 0 59 14t29 38l40 -8v-165l-40 -8q-6 24 -29 38t-58 14h-159v-232q70 -11 112 -11
q79 0 140.5 38.5t97.5 93.5l41 -19z" />
    <glyph glyph-name="Igrave" unicode="&#xcc;" horiz-adv-x="329" 
d="M29 859q-11 15 -11 36q0 19 14.5 33t35.5 14t36 -9.5t32 -30.5l104 -129l-40 -31l-140 90q-20 12 -31 27zM56.5 68.5q13.5 22.5 13.5 57.5v447q0 36 -13.5 58.5t-37.5 29.5l8 39h275l8 -39q-24 -7 -37.5 -29.5t-13.5 -58.5v-447q0 -35 13.5 -57.5t37.5 -29.5l-8 -39h-275
l-8 39q24 7 37.5 29.5z" />
    <glyph glyph-name="Iacute" unicode="&#xcd;" horiz-adv-x="329" 
d="M200 902q17 21 32 30.5t36 9.5t35.5 -14t14.5 -33q0 -21 -11 -36t-31 -27l-140 -90l-39 31zM56.5 68.5q13.5 22.5 13.5 57.5v447q0 36 -13.5 58.5t-37.5 29.5l8 39h275l8 -39q-24 -7 -37.5 -29.5t-13.5 -58.5v-447q0 -35 13.5 -57.5t37.5 -29.5l-8 -39h-275l-8 39
q24 7 37.5 29.5z" />
    <glyph glyph-name="Icircumflex" unicode="&#xce;" horiz-adv-x="329" 
d="M165 920l163 -143l-23 -40l-140 59l-139 -59l-24 40zM56.5 68.5q13.5 22.5 13.5 57.5v447q0 36 -13.5 58.5t-37.5 29.5l8 39h275l8 -39q-24 -7 -37.5 -29.5t-13.5 -58.5v-447q0 -35 13.5 -57.5t37.5 -29.5l-8 -39h-275l-8 39q24 7 37.5 29.5z" />
    <glyph glyph-name="Idieresis" unicode="&#xcf;" horiz-adv-x="329" 
d="M2.5 785.5q-21.5 21.5 -21.5 51.5t21.5 52.5t57.5 22.5t58 -22.5t22 -52.5q0 -29 -21.5 -51t-58.5 -22q-36 0 -57.5 21.5zM211.5 785.5q-21.5 21.5 -21.5 51.5t21.5 52.5t57.5 22.5t58 -22.5t22 -52.5q0 -29 -21.5 -51t-58.5 -22q-36 0 -57.5 21.5zM56.5 68.5
q13.5 22.5 13.5 57.5v447q0 36 -13.5 58.5t-37.5 29.5l8 39h275l8 -39q-24 -7 -37.5 -29.5t-13.5 -58.5v-447q0 -35 13.5 -57.5t37.5 -29.5l-8 -39h-275l-8 39q24 7 37.5 29.5z" />
    <glyph glyph-name="Eth" unicode="&#xd0;" horiz-adv-x="778" 
d="M561 652.5q87 -47.5 137 -131.5t50 -188q0 -172 -97 -252.5t-257 -80.5h-331l-8 39q24 7 37.5 29.5t13.5 57.5v181h-105v86h105v180q0 36 -13.5 58.5t-37.5 29.5l8 39h306q105 0 192 -47.5zM485 106.5q40 31.5 59 82.5t19 110q0 82 -26 156.5t-78.5 121.5t-127.5 47
q-11 0 -37 -2v-229h102l1 -86h-103v-224q43 -8 91 -8q60 0 100 31.5z" />
    <glyph glyph-name="Ntilde" unicode="&#xd1;" horiz-adv-x="710" 
d="M258.5 824.5q-11.5 -9.5 -15.5 -28.5l-52 13q7 61 35 87.5t64 26.5q21 0 39.5 -7t41.5 -20q20 -11 32 -16t25 -5q14 0 25 9t15 28l50 -12q-6 -62 -34 -88.5t-65 -26.5q-21 0 -38.5 7t-40.5 20q-17 11 -30 16.5t-26 5.5q-14 0 -25.5 -9.5zM659.5 631q-14.5 -23 -14.5 -58
v-573h-90q-15 46 -43 84.5t-62 69.5t-89 76q-77 63 -126 112t-84 113h-4v-329q0 -35 13.5 -57.5t37.5 -29.5l-8 -39h-163l-8 39q24 7 37.5 29.5t13.5 57.5v447q0 36 -13.5 58.5t-37.5 29.5l8 39h156q48 -82 101.5 -138.5t129.5 -123.5q58 -52 92.5 -88.5t58.5 -80.5h5v304
q0 36 -14 58.5t-38 29.5l8 39h164l7 -39q-23 -7 -37.5 -30z" />
    <glyph glyph-name="Ograve" unicode="&#xd2;" horiz-adv-x="764" 
d="M207 859q-11 15 -11 36q0 19 14.5 33t35.5 14t36 -9.5t32 -30.5l104 -129l-40 -31l-140 90q-20 12 -31 27zM208.5 27.5q-81.5 46.5 -130 130t-48.5 189.5q0 109 43.5 193.5t123 131.5t184.5 47q94 0 175 -48t129.5 -133t48.5 -193q0 -107 -46 -189.5t-126 -128.5
t-179 -46q-93 0 -174.5 46.5zM491 81q28 26 43.5 67.5t15.5 88.5q0 86 -28 181.5t-79.5 160.5t-117.5 65q-36 0 -64 -25.5t-43.5 -68t-15.5 -90.5q0 -94 28 -188.5t79 -155.5t117 -61q37 0 65 26z" />
    <glyph glyph-name="Oacute" unicode="&#xd3;" horiz-adv-x="764" 
d="M436 902q17 21 32 30.5t37 9.5q21 0 35 -14t14 -33q0 -21 -11 -36t-31 -27l-140 -90l-39 31zM208.5 27.5q-81.5 46.5 -130 130t-48.5 189.5q0 109 43.5 193.5t123 131.5t184.5 47q94 0 175 -48t129.5 -133t48.5 -193q0 -107 -46 -189.5t-126 -128.5t-179 -46
q-93 0 -174.5 46.5zM491 81q28 26 43.5 67.5t15.5 88.5q0 86 -28 181.5t-79.5 160.5t-117.5 65q-36 0 -64 -25.5t-43.5 -68t-15.5 -90.5q0 -94 28 -188.5t79 -155.5t117 -61q37 0 65 26z" />
    <glyph glyph-name="Ocircumflex" unicode="&#xd4;" horiz-adv-x="764" 
d="M383 920l163 -143l-24 -40l-139 59l-140 -59l-24 40zM208.5 27.5q-81.5 46.5 -130 130t-48.5 189.5q0 109 43.5 193.5t123 131.5t184.5 47q94 0 175 -48t129.5 -133t48.5 -193q0 -107 -46 -189.5t-126 -128.5t-179 -46q-93 0 -174.5 46.5zM491 81q28 26 43.5 67.5
t15.5 88.5q0 86 -28 181.5t-79.5 160.5t-117.5 65q-36 0 -64 -25.5t-43.5 -68t-15.5 -90.5q0 -94 28 -188.5t79 -155.5t117 -61q37 0 65 26z" />
    <glyph glyph-name="Otilde" unicode="&#xd5;" horiz-adv-x="764" 
d="M407 792.5q-18 7.5 -40 20.5q-18 10 -30.5 15.5t-25.5 5.5q-14 0 -25 -9.5t-15 -28.5l-52 13q6 62 34 88t65 26q21 0 39 -7t41 -20q36 -21 57 -21q14 0 25.5 9t15.5 28l50 -12q-7 -62 -35 -88.5t-64 -26.5q-22 0 -40 7.5zM208.5 27.5q-81.5 46.5 -130 130t-48.5 189.5
q0 109 43.5 193.5t123 131.5t184.5 47q94 0 175 -48t129.5 -133t48.5 -193q0 -107 -46 -189.5t-126 -128.5t-179 -46q-93 0 -174.5 46.5zM491 81q28 26 43.5 67.5t15.5 88.5q0 86 -28 181.5t-79.5 160.5t-117.5 65q-36 0 -64 -25.5t-43.5 -68t-15.5 -90.5q0 -94 28 -188.5
t79 -155.5t117 -61q37 0 65 26z" />
    <glyph glyph-name="Odieresis" unicode="&#xd6;" horiz-adv-x="764" 
d="M219.5 785.5q-21.5 21.5 -21.5 51.5t21.5 52.5t57.5 22.5t58 -22.5t22 -52.5q0 -29 -21.5 -51t-58.5 -22q-36 0 -57.5 21.5zM428.5 785.5q-21.5 21.5 -21.5 51.5t21.5 52.5t57.5 22.5t58 -22.5t22 -52.5q0 -29 -21.5 -51t-58.5 -22q-36 0 -57.5 21.5zM208.5 27.5
q-81.5 46.5 -130 130t-48.5 189.5q0 109 43.5 193.5t123 131.5t184.5 47q94 0 175 -48t129.5 -133t48.5 -193q0 -107 -46 -189.5t-126 -128.5t-179 -46q-93 0 -174.5 46.5zM491 81q28 26 43.5 67.5t15.5 88.5q0 86 -28 181.5t-79.5 160.5t-117.5 65q-36 0 -64 -25.5
t-43.5 -68t-15.5 -90.5q0 -94 28 -188.5t79 -155.5t117 -61q37 0 65 26z" />
    <glyph glyph-name="multiply" unicode="&#xd7;" horiz-adv-x="590" 
d="M246 350l-181 172l48 46l181 -172l183 173l48 -46l-182 -173l182 -173l-48 -47l-183 174l-181 -173l-48 46z" />
    <glyph glyph-name="Oslash" unicode="&#xd8;" horiz-adv-x="764" 
d="M688.5 520.5q39.5 -79.5 39.5 -175.5q0 -107 -46 -189.5t-126 -128.5t-179 -46q-77 0 -149 33l-40 -71l-58 33l40 72q-68 50 -107 127t-39 172q0 109 43.5 193.5t123 131.5t184.5 47q78 0 149 -34l40 72l59 -31l-42 -75q68 -51 107.5 -130.5zM210.5 323
q14.5 -70 41.5 -127l201 361q-60 88 -134 88q-36 0 -64 -26t-43.5 -68.5t-15.5 -90.5q0 -67 14.5 -137zM485 81q28 26 43.5 68t15.5 89q0 59 -14 125.5t-39 124.5l-199 -358q26 -36 58.5 -55.5t69.5 -19.5t65 26z" />
    <glyph glyph-name="Ugrave" unicode="&#xd9;" horiz-adv-x="672" 
d="M196 859q-11 15 -11 36q0 19 14.5 33t35.5 14t36 -9.5t32 -30.5l103 -129l-39 -31l-140 90q-20 12 -31 27zM183.5 8.5q-70.5 28.5 -113.5 86.5t-43 141q0 17 1 26l28 311q1 5 1 15q0 29 -12 48t-32 25l8 39h275l8 -39q-24 -7 -39.5 -29.5t-19.5 -58.5l-28 -310
q-1 -7 -1 -20q0 -55 24 -97.5t64 -65.5t86 -23q49 0 89.5 23t64 65t23.5 98q0 13 -1 20l-27 309q-4 36 -20 59t-40 29l8 40h164l8 -40q-23 -6 -35 -29t-9 -58l27 -311q1 -8 1 -25q0 -77 -41 -135.5t-111 -90t-154 -31.5q-83 0 -153.5 28.5z" />
    <glyph glyph-name="Uacute" unicode="&#xda;" horiz-adv-x="672" 
d="M413 902q16 20 31 30t37 10q21 0 35 -14t14 -33q0 -22 -11 -36.5t-30 -26.5l-141 -90l-38 31zM183.5 8.5q-70.5 28.5 -113.5 86.5t-43 141q0 17 1 26l28 311q1 5 1 15q0 29 -12 48t-32 25l8 39h275l8 -39q-24 -7 -39.5 -29.5t-19.5 -58.5l-28 -310q-1 -7 -1 -20
q0 -55 24 -97.5t64 -65.5t86 -23q49 0 89.5 23t64 65t23.5 98q0 13 -1 20l-27 309q-4 36 -20 59t-40 29l8 40h164l8 -40q-23 -6 -35 -29t-9 -58l27 -311q1 -8 1 -25q0 -77 -41 -135.5t-111 -90t-154 -31.5q-83 0 -153.5 28.5z" />
    <glyph glyph-name="Ucircumflex" unicode="&#xdb;" horiz-adv-x="672" 
d="M336 920l163 -143l-24 -40l-139 59l-139 -59l-25 40zM183.5 8.5q-70.5 28.5 -113.5 86.5t-43 141q0 17 1 26l28 311q1 5 1 15q0 29 -12 48t-32 25l8 39h275l8 -39q-24 -7 -39.5 -29.5t-19.5 -58.5l-28 -310q-1 -7 -1 -20q0 -55 24 -97.5t64 -65.5t86 -23q49 0 89.5 23
t64 65t23.5 98q0 13 -1 20l-27 309q-4 36 -20 59t-40 29l8 40h164l8 -40q-23 -6 -35 -29t-9 -58l27 -311q1 -8 1 -25q0 -77 -41 -135.5t-111 -90t-154 -31.5q-83 0 -153.5 28.5z" />
    <glyph glyph-name="Udieresis" unicode="&#xdc;" horiz-adv-x="672" 
d="M173 785.5q-21 21.5 -21 51.5q0 31 21 53t58 22q36 0 58 -22.5t22 -52.5q0 -29 -21.5 -51t-58.5 -22t-58 21.5zM381.5 785.5q-21.5 21.5 -21.5 51.5t21.5 52.5t57.5 22.5t58 -22.5t22 -52.5q0 -29 -21.5 -51t-58.5 -22q-36 0 -57.5 21.5zM183.5 8.5
q-70.5 28.5 -113.5 86.5t-43 141q0 17 1 26l28 311q1 5 1 15q0 29 -12 48t-32 25l8 39h275l8 -39q-24 -7 -39.5 -29.5t-19.5 -58.5l-28 -310q-1 -7 -1 -20q0 -55 24 -97.5t64 -65.5t86 -23q49 0 89.5 23t64 65t23.5 98q0 13 -1 20l-27 309q-4 36 -20 59t-40 29l8 40h164
l8 -40q-23 -6 -35 -29t-9 -58l27 -311q1 -8 1 -25q0 -77 -41 -135.5t-111 -90t-154 -31.5q-83 0 -153.5 28.5z" />
    <glyph glyph-name="Yacute" unicode="&#xdd;" horiz-adv-x="677" 
d="M444 902q17 21 32 30.5t37 9.5q21 0 35 -14t14 -33q0 -21 -11 -36t-31 -27l-140 -90l-39 31zM230 68q14 22 14 58v198l-156 249q-46 75 -95 88l7 39h303l8 -39q-11 -4 -17.5 -13.5t-6.5 -23.5q0 -23 17 -51l97 -152h7l97 152q18 30 18 51q0 14 -7 23.5t-19 13.5l8 39h171
l8 -39q-26 -7 -49 -28.5t-46 -59.5l-157 -250v-197q0 -36 13.5 -58t37.5 -29l-8 -39h-275l-7 39q23 7 37 29z" />
    <glyph glyph-name="Thorn" unicode="&#xde;" horiz-adv-x="700" 
d="M608.5 501q77.5 -55 77.5 -151t-77.5 -151t-211.5 -55h-138v-18q0 -35 14 -57.5t38 -29.5l-8 -39h-275l-8 39q24 7 38 29.5t14 57.5v447q0 36 -14 58.5t-38 29.5l8 39h274l9 -39q-24 -7 -38 -29.5t-14 -58.5v-17h138q134 0 211.5 -55zM449.5 254q46.5 34 46.5 96
q0 63 -45.5 96t-122.5 33q-31 0 -69 -4v-249q30 -6 69 -6q75 0 121.5 34z" />
    <glyph glyph-name="germandbls" unicode="&#xdf;" horiz-adv-x="775" 
d="M680 302q36 -35 55 -65.5t19 -75.5q0 -91 -63 -136t-169 -45q-63 0 -113 21.5t-50 65.5q0 27 18.5 43.5t44.5 16.5q29 0 43 -11t26 -33q10 -17 18.5 -25.5t25.5 -8.5q28 0 43 17t15 48q0 21 -16 45.5t-38.5 47.5t-39.5 39q-5 5 -33.5 34t-46.5 62.5t-18 64.5
q0 45 34.5 79t97.5 35q4 8 7 23t3 27q0 45 -26.5 76t-79.5 31q-78 0 -111.5 -54t-33.5 -151v-347q0 -35 13.5 -57.5t37.5 -29.5l-8 -39h-269l-8 39q24 7 37.5 29.5t13.5 57.5v315h-100v81h104q16 118 97 180.5t225 62.5q64 0 127.5 -24t104.5 -68t41 -99q0 -24 -7 -48
t-19 -40q-41 -5 -64 -25t-23 -52q0 -19 13 -35.5t38 -38.5l15 -13z" />
    <glyph glyph-name="agrave" unicode="&#xe0;" horiz-adv-x="577" 
d="M116 681q-11 15 -11 36q0 19 14.5 33t35.5 14t36 -10t32 -30l103 -129l-39 -31l-140 90q-20 12 -31 27zM552 -9.5q-32 -9.5 -63 -9.5q-44 0 -79.5 18.5t-50.5 66.5h-6q-23 -45 -67.5 -65t-93.5 -20q-73 0 -121.5 38.5t-48.5 103.5q0 66 42 105t102.5 58.5t152.5 36.5
l-12 80q-4 30 -20.5 46.5t-39.5 16.5q-20 0 -34.5 -11.5t-14.5 -30.5q0 -6 1 -9q2 -12 2 -16q0 -29 -21.5 -47t-52.5 -18q-34 0 -53.5 21t-19.5 57q0 33 22.5 62.5t69.5 48t116 18.5q89 0 149 -49t73 -148l26 -208q5 -40 19 -62.5t37 -22.5q13 0 26 6l14 -35
q-22 -22 -54 -31.5zM318.5 103.5q24.5 28.5 23.5 63.5l-16 106q-140 -31 -140 -119q0 -37 22 -58t56 -21q30 0 54.5 28.5z" />
    <glyph glyph-name="aacute" unicode="&#xe1;" horiz-adv-x="577" 
d="M220 595l103 129q17 21 32 30.5t37 9.5q21 0 35 -14t14 -33q0 -21 -11 -36t-31 -27l-140 -90zM552 -9.5q-32 -9.5 -63 -9.5q-44 0 -79.5 18.5t-50.5 66.5h-6q-23 -45 -67.5 -65t-93.5 -20q-73 0 -121.5 38.5t-48.5 103.5q0 66 42 105t102.5 58.5t152.5 36.5l-12 80
q-4 30 -20.5 46.5t-39.5 16.5q-20 0 -34.5 -11.5t-14.5 -30.5q0 -6 1 -9q2 -12 2 -16q0 -29 -21.5 -47t-52.5 -18q-34 0 -53.5 21t-19.5 57q0 33 22.5 62.5t69.5 48t116 18.5q89 0 149 -49t73 -148l26 -208q5 -40 19 -62.5t37 -22.5q13 0 26 6l14 -35q-22 -22 -54 -31.5z
M318.5 103.5q24.5 28.5 23.5 63.5l-16 106q-140 -31 -140 -119q0 -37 22 -58t56 -21q30 0 54.5 28.5z" />
    <glyph glyph-name="acircumflex" unicode="&#xe2;" horiz-adv-x="577" 
d="M115 599l164 143l163 -143l-24 -40l-139 59l-139 -59zM552 -9.5q-32 -9.5 -63 -9.5q-44 0 -79.5 18.5t-50.5 66.5h-6q-23 -45 -67.5 -65t-93.5 -20q-73 0 -121.5 38.5t-48.5 103.5q0 66 42 105t102.5 58.5t152.5 36.5l-12 80q-4 30 -20.5 46.5t-39.5 16.5
q-20 0 -34.5 -11.5t-14.5 -30.5q0 -6 1 -9q2 -12 2 -16q0 -29 -21.5 -47t-52.5 -18q-34 0 -53.5 21t-19.5 57q0 33 22.5 62.5t69.5 48t116 18.5q89 0 149 -49t73 -148l26 -208q5 -40 19 -62.5t37 -22.5q13 0 26 6l14 -35q-22 -22 -54 -31.5zM318.5 103.5
q24.5 28.5 23.5 63.5l-16 106q-140 -31 -140 -119q0 -37 22 -58t56 -21q30 0 54.5 28.5z" />
    <glyph glyph-name="atilde" unicode="&#xe3;" horiz-adv-x="577" 
d="M190.5 646.5q-11.5 -9.5 -15.5 -28.5l-52 13q7 62 35 88t64 26q21 0 38.5 -6.5t42.5 -20.5q18 -10 30.5 -15.5t25.5 -5.5q14 0 25.5 9t15.5 28l50 -12q-6 -62 -34 -88.5t-65 -26.5q-22 0 -40 7.5t-39 20.5q-21 11 -32 16t-24 5q-14 0 -25.5 -9.5zM552 -9.5
q-32 -9.5 -63 -9.5q-44 0 -79.5 18.5t-50.5 66.5h-6q-23 -45 -67.5 -65t-93.5 -20q-73 0 -121.5 38.5t-48.5 103.5q0 66 42 105t102.5 58.5t152.5 36.5l-12 80q-4 30 -20.5 46.5t-39.5 16.5q-20 0 -34.5 -11.5t-14.5 -30.5q0 -6 1 -9q2 -12 2 -16q0 -29 -21.5 -47t-52.5 -18
q-34 0 -53.5 21t-19.5 57q0 33 22.5 62.5t69.5 48t116 18.5q89 0 149 -49t73 -148l26 -208q5 -40 19 -62.5t37 -22.5q13 0 26 6l14 -35q-22 -22 -54 -31.5zM318.5 103.5q24.5 28.5 23.5 63.5l-16 106q-140 -31 -140 -119q0 -37 22 -58t56 -21q30 0 54.5 28.5z" />
    <glyph glyph-name="adieresis" unicode="&#xe4;" horiz-adv-x="577" 
d="M124 607.5q-21 21.5 -21 51.5q0 31 21 53t58 22q36 0 58 -22.5t22 -52.5q0 -29 -21.5 -51t-58.5 -22t-58 21.5zM332.5 607.5q-21.5 21.5 -21.5 51.5t21.5 52.5t57.5 22.5t58 -22.5t22 -52.5q0 -29 -21.5 -51t-58.5 -22q-36 0 -57.5 21.5zM552 -9.5q-32 -9.5 -63 -9.5
q-44 0 -79.5 18.5t-50.5 66.5h-6q-23 -45 -67.5 -65t-93.5 -20q-73 0 -121.5 38.5t-48.5 103.5q0 66 42 105t102.5 58.5t152.5 36.5l-12 80q-4 30 -20.5 46.5t-39.5 16.5q-20 0 -34.5 -11.5t-14.5 -30.5q0 -6 1 -9q2 -12 2 -16q0 -29 -21.5 -47t-52.5 -18q-34 0 -53.5 21
t-19.5 57q0 33 22.5 62.5t69.5 48t116 18.5q89 0 149 -49t73 -148l26 -208q5 -40 19 -62.5t37 -22.5q13 0 26 6l14 -35q-22 -22 -54 -31.5zM318.5 103.5q24.5 28.5 23.5 63.5l-16 106q-140 -31 -140 -119q0 -37 22 -58t56 -21q30 0 54.5 28.5z" />
    <glyph glyph-name="aring" unicode="&#xe5;" horiz-adv-x="577" 
d="M205.5 603q-31.5 31 -31.5 75q0 43 31.5 74.5t75.5 31.5t75.5 -31.5t31.5 -74.5q0 -44 -31.5 -75t-75.5 -31t-75.5 31zM249.5 709q-12.5 -13 -12.5 -31q0 -20 12.5 -33t31.5 -13t32 13.5t13 32.5q0 18 -13 31t-32 13t-31.5 -13zM552 -9.5q-32 -9.5 -63 -9.5
q-44 0 -79.5 18.5t-50.5 66.5h-6q-23 -45 -67.5 -65t-93.5 -20q-73 0 -121.5 38.5t-48.5 103.5q0 66 42 105t102.5 58.5t152.5 36.5l-12 80q-4 30 -20.5 46.5t-39.5 16.5q-20 0 -34.5 -11.5t-14.5 -30.5q0 -6 1 -9q2 -12 2 -16q0 -29 -21.5 -47t-52.5 -18q-34 0 -53.5 21
t-19.5 57q0 33 22.5 62.5t69.5 48t116 18.5q89 0 149 -49t73 -148l26 -208q5 -40 19 -62.5t37 -22.5q13 0 26 6l14 -35q-22 -22 -54 -31.5zM318.5 103.5q24.5 28.5 23.5 63.5l-16 106q-140 -31 -140 -119q0 -37 22 -58t56 -21q30 0 54.5 28.5z" />
    <glyph glyph-name="ae" unicode="&#xe6;" 
d="M780.5 131q37.5 24 58.5 54l32 -12q-5 -49 -36 -93t-84 -71.5t-120 -27.5q-62 0 -120.5 32.5t-95.5 88.5h-5q-24 -50 -82.5 -86t-120.5 -36q-90 0 -138 37t-48 98q0 63 45.5 99.5t110.5 53t171 31.5l-15 104q-4 30 -25.5 46.5t-50.5 16.5q-27 0 -43 -16t-16 -43
q0 -73 -72 -73q-34 0 -53.5 23t-19.5 59q0 31 20.5 59.5t62.5 47t103 18.5q54 0 104.5 -23.5t82.5 -68.5h4q36 45 87.5 68.5t109.5 23.5q79 0 135 -36.5t82 -98.5q14 -34 35 -38l10 -49l-373 -70q32 -142 182 -142q45 0 82.5 24zM536.5 425q-28.5 -39 -28.5 -92v-13l196 37
q-4 45 -29 76t-68 31q-42 0 -70.5 -39zM326 99q31 23 43 56l-13 88q-77 -13 -123.5 -36.5t-46.5 -68.5q0 -30 22 -46t53 -16q34 0 65 23z" />
    <glyph glyph-name="ccedilla" unicode="&#xe7;" horiz-adv-x="550" 
d="M479.5 40q-50.5 -52 -145.5 -58l-20 -44q12 4 25 4q36 0 58 -17.5t22 -47.5q0 -29 -19.5 -55t-55 -41.5t-80.5 -15.5q-53 0 -89 23t-36 54q0 15 11 27t26 12q19 0 28 -8.5t17 -24.5q9 -18 19.5 -27t32.5 -9q25 0 40 13t15 35q0 14 -10 22t-25 8q-17 0 -31 -11l-35 16
l39 89q-72 11 -127 51t-85 100t-30 127q0 85 37.5 148.5t102 97t142.5 33.5q65 0 119 -22.5t85.5 -60.5t31.5 -82q0 -31 -23.5 -55t-54.5 -24q-32 0 -50.5 12.5t-28 30t-19.5 47.5q-14 42 -30.5 63t-55.5 21q-25 0 -47 -17t-36 -48t-14 -71q0 -111 48 -170t138 -59
q44 0 82.5 23.5t59.5 53.5l32 -12q-13 -79 -63.5 -131z" />
    <glyph glyph-name="egrave" unicode="&#xe8;" horiz-adv-x="592" 
d="M149 681q-11 15 -11 36q0 19 14.5 33t35.5 14t36 -9.5t32 -30.5l104 -129l-40 -31l-140 90q-20 12 -31 27zM460.5 130.5q37.5 24.5 57.5 54.5l32 -12q-5 -50 -35.5 -94t-83.5 -71t-120 -27q-84 0 -149.5 38.5t-101.5 103t-36 139.5q0 84 37 147.5t101.5 97.5t142.5 34
q79 0 137 -37t82 -98q13 -33 35 -37l9 -49l-362 -105q42 -109 172 -109q45 0 82.5 24.5zM216.5 425q-28.5 -39 -28.5 -93q0 -26 3 -50l193 56q-3 49 -28.5 87.5t-69.5 38.5q-41 0 -69.5 -39z" />
    <glyph glyph-name="eacute" unicode="&#xe9;" horiz-adv-x="592" 
d="M211 595l103 129q17 21 32 30.5t36 9.5t35.5 -14t14.5 -33q0 -21 -11 -36t-31 -27l-140 -90zM460.5 130.5q37.5 24.5 57.5 54.5l32 -12q-5 -50 -35.5 -94t-83.5 -71t-120 -27q-84 0 -149.5 38.5t-101.5 103t-36 139.5q0 84 37 147.5t101.5 97.5t142.5 34q79 0 137 -37
t82 -98q13 -33 35 -37l9 -49l-362 -105q42 -109 172 -109q45 0 82.5 24.5zM216.5 425q-28.5 -39 -28.5 -93q0 -26 3 -50l193 56q-3 49 -28.5 87.5t-69.5 38.5q-41 0 -69.5 -39z" />
    <glyph glyph-name="ecircumflex" unicode="&#xea;" horiz-adv-x="592" 
d="M131 599l163 143l163 -143l-23 -40l-140 59l-139 -59zM460.5 130.5q37.5 24.5 57.5 54.5l32 -12q-5 -50 -35.5 -94t-83.5 -71t-120 -27q-84 0 -149.5 38.5t-101.5 103t-36 139.5q0 84 37 147.5t101.5 97.5t142.5 34q79 0 137 -37t82 -98q13 -33 35 -37l9 -49l-362 -105
q42 -109 172 -109q45 0 82.5 24.5zM216.5 425q-28.5 -39 -28.5 -93q0 -26 3 -50l193 56q-3 49 -28.5 87.5t-69.5 38.5q-41 0 -69.5 -39z" />
    <glyph glyph-name="edieresis" unicode="&#xeb;" horiz-adv-x="592" 
d="M131.5 607.5q-21.5 21.5 -21.5 51.5t21.5 52.5t57.5 22.5t58 -22.5t22 -52.5q0 -29 -21.5 -51t-58.5 -22q-36 0 -57.5 21.5zM340.5 607.5q-21.5 21.5 -21.5 51.5t21.5 52.5t57.5 22.5t58 -22.5t22 -52.5q0 -29 -21.5 -51t-58.5 -22q-36 0 -57.5 21.5zM460.5 130.5
q37.5 24.5 57.5 54.5l32 -12q-5 -50 -35.5 -94t-83.5 -71t-120 -27q-84 0 -149.5 38.5t-101.5 103t-36 139.5q0 84 37 147.5t101.5 97.5t142.5 34q79 0 137 -37t82 -98q13 -33 35 -37l9 -49l-362 -105q42 -109 172 -109q45 0 82.5 24.5zM216.5 425q-28.5 -39 -28.5 -93
q0 -26 3 -50l193 56q-3 49 -28.5 87.5t-69.5 38.5q-41 0 -69.5 -39z" />
    <glyph glyph-name="igrave" unicode="&#xec;" horiz-adv-x="300" 
d="M-9 681q-11 15 -11 36q0 19 14.5 33t35.5 14t36 -9.5t32 -30.5l104 -129l-40 -31l-140 90q-20 12 -31 27zM55.5 68q13.5 22 13.5 58v217q0 35 -13.5 57.5t-37.5 29.5l8 39q105 16 189 73h14v-416q0 -36 14 -58t39 -29l-9 -39h-247l-8 39q24 7 37.5 29z" />
    <glyph glyph-name="iacute" unicode="&#xed;" horiz-adv-x="300" 
d="M165 724q17 21 32 30.5t36 9.5t35.5 -14t14.5 -33q0 -21 -11 -36t-31 -27l-140 -90l-39 31zM55.5 68q13.5 22 13.5 58v217q0 35 -13.5 57.5t-37.5 29.5l8 39q105 16 189 73h14v-416q0 -36 14 -58t39 -29l-9 -39h-247l-8 39q24 7 37.5 29z" />
    <glyph glyph-name="icircumflex" unicode="&#xee;" horiz-adv-x="300" 
d="M150 742l163 -143l-24 -40l-139 59l-139 -59l-25 40zM55.5 68q13.5 22 13.5 58v217q0 35 -13.5 57.5t-37.5 29.5l8 39q105 16 189 73h14v-416q0 -36 14 -58t39 -29l-9 -39h-247l-8 39q24 7 37.5 29z" />
    <glyph glyph-name="idieresis" unicode="&#xef;" horiz-adv-x="300" 
d="M-12.5 607.5q-21.5 21.5 -21.5 51.5t21.5 52.5t57.5 22.5t58 -22.5t22 -52.5q0 -29 -21.5 -51t-58.5 -22q-36 0 -57.5 21.5zM196.5 607.5q-21.5 21.5 -21.5 51.5t21.5 52.5t57.5 22.5t58 -22.5t22 -52.5q0 -29 -21.5 -51t-58.5 -22q-36 0 -57.5 21.5zM55.5 68
q13.5 22 13.5 58v217q0 35 -13.5 57.5t-37.5 29.5l8 39q105 16 189 73h14v-416q0 -36 14 -58t39 -29l-9 -39h-247l-8 39q24 7 37.5 29z" />
    <glyph glyph-name="eth" unicode="&#xf0;" horiz-adv-x="636" 
d="M164.5 15.5q-68.5 35.5 -105 99.5t-36.5 145t35.5 145t98 100t141.5 36q64 0 115 -30l3 2q-5 36 -18 73t-29 65l-123 -44l-16 44l122 46q-17 39 -46 78l50 45q28 -23 92 -93l118 42l17 -43l-97 -36q131 -189 131 -363q0 -168 -77.5 -257.5t-215.5 -89.5
q-91 0 -159.5 35.5zM408 105q24 55 24 168q0 86 -6 158q-45 40 -103 40q-63 0 -90.5 -52.5t-27.5 -159.5q0 -104 28 -156.5t91 -52.5q60 0 84 55z" />
    <glyph glyph-name="ntilde" unicode="&#xf1;" horiz-adv-x="657" 
d="M232.5 646.5q-11.5 -9.5 -15.5 -28.5l-52 13q6 62 34 88t65 26q21 0 39 -7t41 -20q36 -21 57 -21q14 0 25.5 9t15.5 28l50 -12q-7 -62 -35 -88.5t-64 -26.5q-21 0 -38.5 7t-40.5 20q-18 11 -31 16.5t-26 5.5t-24.5 -9.5zM598 68q16 -22 41 -29l-8 -39h-247l-9 39
q21 6 32 24t11 47q0 10 -1 16l-22 214q-4 46 -25 74t-59 28q-37 0 -60 -29.5t-23 -72.5v-214q0 -35 14.5 -57.5t38.5 -29.5l-8 -39h-247l-7 39q23 7 36.5 29t13.5 58v212q0 35 -13.5 57.5t-37.5 29.5l8 39q50 8 91.5 26.5t88.5 51.5h14l4 -78h6q23 35 58 56.5t82 21.5
q85 0 132.5 -52.5t57.5 -161.5l18 -202q4 -36 20 -58z" />
    <glyph glyph-name="ograve" unicode="&#xf2;" horiz-adv-x="599" 
d="M151 681q-11 15 -11 36q0 19 14.5 33t35.5 14t36 -9.5t32 -30.5l103 -129l-39 -31l-140 90q-20 12 -31 27zM155.5 17q-63.5 36 -97.5 100.5t-34 145.5t34 144.5t96 99t145 35.5t145.5 -36t96.5 -100t34 -146q0 -81 -33.5 -144.5t-95.5 -99t-144 -35.5q-83 0 -146.5 36z
M400 98q21 37 21 96q0 42 -18.5 106t-54 112.5t-83.5 48.5q-44 0 -65.5 -36.5t-21.5 -96.5q0 -45 18.5 -109t54 -111t84.5 -47q44 0 65 37z" />
    <glyph glyph-name="oacute" unicode="&#xf3;" horiz-adv-x="599" 
d="M322 724q17 21 32 30.5t36 9.5t35.5 -14t14.5 -33q0 -21 -11 -36t-31 -27l-140 -90l-39 31zM155.5 17q-63.5 36 -97.5 100.5t-34 145.5t34 144.5t96 99t145 35.5t145.5 -36t96.5 -100t34 -146q0 -81 -33.5 -144.5t-95.5 -99t-144 -35.5q-83 0 -146.5 36zM400 98
q21 37 21 96q0 42 -18.5 106t-54 112.5t-83.5 48.5q-44 0 -65.5 -36.5t-21.5 -96.5q0 -45 18.5 -109t54 -111t84.5 -47q44 0 65 37z" />
    <glyph glyph-name="ocircumflex" unicode="&#xf4;" horiz-adv-x="599" 
d="M300 742l163 -143l-24 -40l-139 59l-140 -59l-24 40zM155.5 17q-63.5 36 -97.5 100.5t-34 145.5t34 144.5t96 99t145 35.5t145.5 -36t96.5 -100t34 -146q0 -81 -33.5 -144.5t-95.5 -99t-144 -35.5q-83 0 -146.5 36zM400 98q21 37 21 96q0 42 -18.5 106t-54 112.5
t-83.5 48.5q-44 0 -65.5 -36.5t-21.5 -96.5q0 -45 18.5 -109t54 -111t84.5 -47q44 0 65 37z" />
    <glyph glyph-name="otilde" unicode="&#xf5;" horiz-adv-x="599" 
d="M324 614.5q-18 7.5 -40 20.5q-18 10 -30.5 15.5t-25.5 5.5q-14 0 -25 -9.5t-15 -28.5l-52 13q6 62 34 88t65 26q21 0 39 -7t41 -20q36 -21 57 -21q14 0 25.5 9t15.5 28l50 -12q-7 -62 -35 -88.5t-64 -26.5q-22 0 -40 7.5zM155.5 17q-63.5 36 -97.5 100.5t-34 145.5
t34 144.5t96 99t145 35.5t145.5 -36t96.5 -100t34 -146q0 -81 -33.5 -144.5t-95.5 -99t-144 -35.5q-83 0 -146.5 36zM400 98q21 37 21 96q0 42 -18.5 106t-54 112.5t-83.5 48.5q-44 0 -65.5 -36.5t-21.5 -96.5q0 -45 18.5 -109t54 -111t84.5 -47q44 0 65 37z" />
    <glyph glyph-name="odieresis" unicode="&#xf6;" horiz-adv-x="599" 
d="M137 607.5q-21 21.5 -21 51.5q0 31 21 53t58 22q36 0 57.5 -22.5t21.5 -52.5t-21.5 -51.5t-57.5 -21.5q-37 0 -58 21.5zM345.5 607.5q-21.5 21.5 -21.5 51.5t21.5 52.5t57.5 22.5t58 -22.5t22 -52.5q0 -29 -21.5 -51t-58.5 -22q-36 0 -57.5 21.5zM155.5 17
q-63.5 36 -97.5 100.5t-34 145.5t34 144.5t96 99t145 35.5t145.5 -36t96.5 -100t34 -146q0 -81 -33.5 -144.5t-95.5 -99t-144 -35.5q-83 0 -146.5 36zM400 98q21 37 21 96q0 42 -18.5 106t-54 112.5t-83.5 48.5q-44 0 -65.5 -36.5t-21.5 -96.5q0 -45 18.5 -109t54 -111
t84.5 -47q44 0 65 37z" />
    <glyph glyph-name="divide" unicode="&#xf7;" horiz-adv-x="610" 
d="M227.5 462q-26.5 28 -26.5 68t26.5 68.5t77.5 28.5q49 0 76 -29t27 -68t-27 -67.5t-76 -28.5q-51 0 -77.5 28zM602 382v-65h-594v65h594zM227.5 101q-26.5 28 -26.5 68t26.5 68t77.5 28q49 0 76 -28.5t27 -67.5t-27 -67.5t-76 -28.5q-51 0 -77.5 28z" />
    <glyph glyph-name="oslash" unicode="&#xf8;" horiz-adv-x="599" 
d="M549 391.5q27 -58.5 27 -131.5q0 -81 -33.5 -144.5t-95.5 -99.5t-145 -36q-55 0 -103 17l-30 -55l-58 33l29 52q-55 37 -85.5 98.5t-30.5 137.5q0 81 34 144t96.5 98.5t144.5 35.5q64 0 115 -21l29 53l59 -32l-30 -53q50 -38 77 -96.5zM189 251q10 -45 28 -85l135 243
q-39 52 -86 52q-45 0 -66 -36.5t-21 -97.5q0 -31 10 -76zM400.5 98.5q21.5 37.5 21.5 95.5q0 26 -8.5 66t-23.5 79l-133 -238q37 -40 78 -40q44 0 65.5 37.5z" />
    <glyph glyph-name="ugrave" unicode="&#xf9;" horiz-adv-x="643" 
d="M173 681q-11 15 -11 36q0 19 14.5 33t35.5 14t36 -10t32 -30l103 -129l-39 -31l-140 90q-20 12 -31 27zM587 68.5q14 -22.5 38 -29.5l-8 -40q-97 -3 -156 -19h-13l-23 95h-6q-27 -42 -70 -68.5t-105 -26.5q-82 0 -132 54t-49 160v148q0 35 -14 58t-37 29l8 39
q109 19 189 74h15v-361q0 -48 26 -74.5t68 -26.5q39 0 67 29.5t28 71.5v161q0 35 -13.5 58t-37.5 29l8 40q107 17 188 73h15v-416q0 -35 14 -57.5z" />
    <glyph glyph-name="uacute" unicode="&#xfa;" horiz-adv-x="643" 
d="M286 595l103 129q17 21 32 30.5t37 9.5q21 0 35 -14t14 -33q0 -21 -11 -36t-31 -27l-140 -90zM587 68.5q14 -22.5 38 -29.5l-8 -40q-97 -3 -156 -19h-13l-23 95h-6q-27 -42 -70 -68.5t-105 -26.5q-82 0 -132 54t-49 160v148q0 35 -14 58t-37 29l8 39q109 19 189 74h15
v-361q0 -48 26 -74.5t68 -26.5q39 0 67 29.5t28 71.5v161q0 35 -13.5 58t-37.5 29l8 40q107 17 188 73h15v-416q0 -35 14 -57.5z" />
    <glyph glyph-name="ucircumflex" unicode="&#xfb;" horiz-adv-x="643" 
d="M157 599l164 143l163 -143l-24 -40l-139 59l-139 -59zM587 68.5q14 -22.5 38 -29.5l-8 -40q-97 -3 -156 -19h-13l-23 95h-6q-27 -42 -70 -68.5t-105 -26.5q-82 0 -132 54t-49 160v148q0 35 -14 58t-37 29l8 39q109 19 189 74h15v-361q0 -48 26 -74.5t68 -26.5
q39 0 67 29.5t28 71.5v161q0 35 -13.5 58t-37.5 29l8 40q107 17 188 73h15v-416q0 -35 14 -57.5z" />
    <glyph glyph-name="udieresis" unicode="&#xfc;" horiz-adv-x="643" 
d="M158.5 607.5q-21.5 21.5 -21.5 51.5t21.5 52.5t57.5 22.5t58 -22.5t22 -52.5q0 -29 -21.5 -51t-58.5 -22q-36 0 -57.5 21.5zM367.5 607.5q-21.5 21.5 -21.5 51.5t21.5 52.5t57.5 22.5t58 -22.5t22 -52.5q0 -29 -21.5 -51t-58.5 -22q-36 0 -57.5 21.5zM587 68.5
q14 -22.5 38 -29.5l-8 -40q-97 -3 -156 -19h-13l-23 95h-6q-27 -42 -70 -68.5t-105 -26.5q-82 0 -132 54t-49 160v148q0 35 -14 58t-37 29l8 39q109 19 189 74h15v-361q0 -48 26 -74.5t68 -26.5q39 0 67 29.5t28 71.5v161q0 35 -13.5 58t-37.5 29l8 40q107 17 188 73h15
v-416q0 -35 14 -57.5z" />
    <glyph glyph-name="yacute" unicode="&#xfd;" horiz-adv-x="536" 
d="M239 595l103 129q17 21 32 30.5t37 9.5q21 0 35 -14t14 -33q0 -21 -11 -36t-31 -27l-140 -90zM512.5 513.5q25.5 -28.5 25.5 -68.5q0 -72 -44 -194q-71 -216 -180 -347q-51 -66 -99 -97t-106 -31q-43 0 -72.5 24.5t-29.5 62.5q0 35 23.5 57.5t57.5 22.5q26 0 40.5 -10.5
t30.5 -29.5q5 -7 11 -12.5t12 -5.5q31 0 77 65q19 24 35 50h-35l-157 337q-17 36 -46.5 58t-60.5 29l8 40q53 8 101 28.5t70 49.5h14l183 -386h6q27 62 40 115q12 33 16 52.5t3 35.5q-1 11 -7.5 18t-22.5 20q-22 16 -33.5 30.5t-11.5 39.5q0 34 24 54.5t61 20.5
q41 0 66.5 -28.5z" />
    <glyph glyph-name="thorn" unicode="&#xfe;" horiz-adv-x="634" 
d="M494.5 506q55.5 -36 87.5 -100.5t32 -145.5t-30 -144.5t-84.5 -99t-125.5 -35.5q-44 0 -80.5 16.5t-63.5 46.5h-6v-122q0 -36 14 -58.5t37 -28.5l-8 -40h-246l-8 40q23 6 37 28.5t14 58.5v652q0 35 -14 57.5t-37 29.5l8 39q53 8 106.5 28t98.5 49l12 -5q-14 -60 -14 -169
v-121h4q31 32 64 46t78 14q69 0 124.5 -36zM436.5 99q25.5 38 25.5 95q0 50 -16 113t-48.5 109t-80.5 46q-41 0 -66 -37.5t-25 -96.5q0 -53 15.5 -115.5t48 -107t80.5 -44.5q41 0 66.5 38z" />
    <glyph glyph-name="ydieresis" unicode="&#xff;" horiz-adv-x="536" 
d="M105.5 607.5q-21.5 21.5 -21.5 51.5t21.5 52.5t57.5 22.5t58 -22.5t22 -52.5q0 -29 -21.5 -51t-58.5 -22q-36 0 -57.5 21.5zM314.5 607.5q-21.5 21.5 -21.5 51.5t21.5 52.5t57.5 22.5t58 -22.5t22 -52.5q0 -29 -21.5 -51t-58.5 -22q-36 0 -57.5 21.5zM512.5 513.5
q25.5 -28.5 25.5 -68.5q0 -72 -44 -194q-71 -216 -180 -347q-51 -66 -99 -97t-106 -31q-43 0 -72.5 24.5t-29.5 62.5q0 35 23.5 57.5t57.5 22.5q26 0 40.5 -10.5t30.5 -29.5q5 -7 11 -12.5t12 -5.5q31 0 77 65q19 24 35 50h-35l-157 337q-17 36 -46.5 58t-60.5 29l8 40
q53 8 101 28.5t70 49.5h14l183 -386h6q27 62 40 115q12 33 16 52.5t3 35.5q-1 11 -7.5 18t-22.5 20q-22 16 -33.5 30.5t-11.5 39.5q0 34 24 54.5t61 20.5q41 0 66.5 -28.5z" />
    <glyph glyph-name="Amacron" unicode="&#x100;" horiz-adv-x="716" 
d="M203 788v77h309v-77h-309zM674.5 68q22.5 -22 48.5 -29l-8 -39h-286l-8 39q27 10 27 41q0 18 -11 46l-14 36h-255l-14 -36q-11 -27 -11 -45q0 -32 27 -42l-8 -39h-161l-8 39q26 7 49 29.5t37 57.5l178 443q-18 33 -57 63l5 40q50 2 99.5 14.5t82.5 35.5h8l242 -596
q15 -36 37.5 -58zM297 474h-4l-93 -233h191z" />
    <glyph glyph-name="amacron" unicode="&#x101;" horiz-adv-x="577" 
d="M132 610v77h309v-77h-309zM552 -9.5q-32 -9.5 -63 -9.5q-44 0 -79.5 18.5t-50.5 66.5h-6q-23 -45 -67.5 -65t-93.5 -20q-73 0 -121.5 38.5t-48.5 103.5q0 66 42 105t102.5 58.5t152.5 36.5l-12 80q-4 30 -20.5 46.5t-39.5 16.5q-20 0 -34.5 -11.5t-14.5 -30.5q0 -6 1 -9
q2 -12 2 -16q0 -29 -21.5 -47t-52.5 -18q-34 0 -53.5 21t-19.5 57q0 33 22.5 62.5t69.5 48t116 18.5q89 0 149 -49t73 -148l26 -208q5 -40 19 -62.5t37 -22.5q13 0 26 6l14 -35q-22 -22 -54 -31.5zM318.5 103.5q24.5 28.5 23.5 63.5l-16 106q-140 -31 -140 -119
q0 -37 22 -58t56 -21q30 0 54.5 28.5z" />
    <glyph glyph-name="Abreve" unicode="&#x102;" horiz-adv-x="716" 
d="M258.5 800.5q-40.5 28.5 -57.5 73.5l50 29q10 -24 40 -38.5t66 -14.5q38 0 68 14t40 37l50 -27q-18 -45 -58 -73.5t-100 -28.5q-58 0 -98.5 28.5zM674.5 68q22.5 -22 48.5 -29l-8 -39h-286l-8 39q27 10 27 41q0 18 -11 46l-14 36h-255l-14 -36q-11 -27 -11 -45
q0 -32 27 -42l-8 -39h-161l-8 39q26 7 49 29.5t37 57.5l178 443q-18 33 -57 63l5 40q50 2 99.5 14.5t82.5 35.5h8l242 -596q15 -36 37.5 -58zM297 474h-4l-93 -233h191z" />
    <glyph glyph-name="abreve" unicode="&#x103;" horiz-adv-x="577" 
d="M187.5 622.5q-40.5 28.5 -57.5 73.5l50 29q10 -24 39.5 -38.5t66.5 -14.5q38 0 68 14t40 37l49 -27q-17 -45 -57.5 -73.5t-99.5 -28.5q-58 0 -98.5 28.5zM552 -9.5q-32 -9.5 -63 -9.5q-44 0 -79.5 18.5t-50.5 66.5h-6q-23 -45 -67.5 -65t-93.5 -20q-73 0 -121.5 38.5
t-48.5 103.5q0 66 42 105t102.5 58.5t152.5 36.5l-12 80q-4 30 -20.5 46.5t-39.5 16.5q-20 0 -34.5 -11.5t-14.5 -30.5q0 -6 1 -9q2 -12 2 -16q0 -29 -21.5 -47t-52.5 -18q-34 0 -53.5 21t-19.5 57q0 33 22.5 62.5t69.5 48t116 18.5q89 0 149 -49t73 -148l26 -208
q5 -40 19 -62.5t37 -22.5q13 0 26 6l14 -35q-22 -22 -54 -31.5zM318.5 103.5q24.5 28.5 23.5 63.5l-16 106q-140 -31 -140 -119q0 -37 22 -58t56 -21q30 0 54.5 28.5z" />
    <glyph glyph-name="Aogonek" unicode="&#x104;" horiz-adv-x="716" 
d="M678 -200q-32 -20 -78 -20q-57 0 -90.5 30.5t-33.5 76.5q0 65 56 113h-103l-8 39q27 10 27 41q0 18 -11 46l-14 36h-255l-14 -36q-11 -27 -11 -45q0 -32 27 -42l-8 -39h-161l-8 39q26 7 49 29.5t37 57.5l178 443q-18 33 -57 63l5 40q50 2 99.5 14.5t82.5 35.5h8l242 -596
q15 -36 37.5 -58t48.5 -29l-8 -39h-74q-59 -43 -59 -100q0 -22 13.5 -36.5t33.5 -14.5q39 0 61 38l45 -24q-25 -43 -57 -63zM297 474h-4l-93 -233h191z" />
    <glyph glyph-name="aogonek" unicode="&#x105;" horiz-adv-x="588" 
d="M560.5 -200q-32.5 -20 -78.5 -20q-57 0 -90.5 30.5t-33.5 76.5q0 65 55 111q-41 23 -54 68h-6q-23 -45 -67.5 -65t-93.5 -20q-73 0 -121.5 38.5t-48.5 103.5q0 66 42 105t102.5 58.5t152.5 36.5l-12 80q-4 30 -20.5 46.5t-39.5 16.5q-20 0 -34.5 -11.5t-14.5 -30.5
q0 -6 1 -9q2 -12 2 -16q0 -29 -21.5 -47t-52.5 -18q-34 0 -53.5 21t-19.5 57q0 33 22.5 62.5t69.5 48t116 18.5q89 0 149 -49t73 -148l26 -208q5 -40 19 -62.5t37 -22.5q13 0 26 6l14 -35q-35 -35 -103 -41q-39 -37 -39 -83q0 -21 14 -35t34 -14q37 0 59 38l46 -24
q-24 -43 -56.5 -63zM318.5 103.5q24.5 28.5 23.5 63.5l-16 106q-140 -31 -140 -119q0 -37 22 -58t56 -21q30 0 54.5 28.5z" />
    <glyph glyph-name="Cacute" unicode="&#x106;" horiz-adv-x="702" 
d="M352 902q17 21 32 30.5t36 9.5t35.5 -14t14.5 -33q0 -21 -11 -36t-31 -27l-140 -90l-39 31zM196 28.5q-80 47.5 -123 132.5t-43 194q0 104 46 187t126 130t178 47q38 0 93 -11q40 -8 58 -8q46 0 84 19h14l46 -244l-47 -9q-29 79 -88 128.5t-138 49.5q-46 0 -89 -27
t-69.5 -78.5t-26.5 -120.5q0 -94 33.5 -166t88 -111t116.5 -39q76 0 118.5 50t62.5 116l47 -12q-8 -74 -44.5 -136.5t-101.5 -100.5t-153 -38q-108 0 -188 47.5z" />
    <glyph glyph-name="cacute" unicode="&#x107;" horiz-adv-x="550" 
d="M276 724q17 21 32 30.5t36 9.5t35.5 -14t14.5 -33q0 -21 -11 -36t-31 -27l-140 -90l-39 31zM162 20q-66 39 -102 103.5t-36 138.5q0 85 37.5 148.5t102 97t142.5 33.5q65 0 119 -22.5t85.5 -60.5t31.5 -82q0 -31 -23.5 -55t-54.5 -24q-32 0 -50.5 12.5t-28 30t-19.5 47.5
q-14 42 -30.5 63t-55.5 21q-25 0 -47 -17t-36 -48t-14 -71q0 -111 48 -170t138 -59q44 0 82.5 23.5t59.5 53.5l32 -12q-14 -84 -69 -137t-161 -53q-85 0 -151 39z" />
    <glyph glyph-name="Ccircumflex" unicode="&#x108;" horiz-adv-x="702" 
d="M351 920l163 -143l-24 -40l-139 59l-139 -59l-25 40zM196 28.5q-80 47.5 -123 132.5t-43 194q0 104 46 187t126 130t178 47q38 0 93 -11q40 -8 58 -8q46 0 84 19h14l46 -244l-47 -9q-29 79 -88 128.5t-138 49.5q-46 0 -89 -27t-69.5 -78.5t-26.5 -120.5q0 -94 33.5 -166
t88 -111t116.5 -39q76 0 118.5 50t62.5 116l47 -12q-8 -74 -44.5 -136.5t-101.5 -100.5t-153 -38q-108 0 -188 47.5z" />
    <glyph glyph-name="ccircumflex" unicode="&#x109;" horiz-adv-x="550" 
d="M275 742l163 -143l-24 -40l-139 59l-139 -59l-25 40zM162 20q-66 39 -102 103.5t-36 138.5q0 85 37.5 148.5t102 97t142.5 33.5q65 0 119 -22.5t85.5 -60.5t31.5 -82q0 -31 -23.5 -55t-54.5 -24q-32 0 -50.5 12.5t-28 30t-19.5 47.5q-14 42 -30.5 63t-55.5 21
q-25 0 -47 -17t-36 -48t-14 -71q0 -111 48 -170t138 -59q44 0 82.5 23.5t59.5 53.5l32 -12q-14 -84 -69 -137t-161 -53q-85 0 -151 39z" />
    <glyph glyph-name="Cdotaccent" unicode="&#x10a;" horiz-adv-x="702" 
d="M292.5 803q-21.5 22 -21.5 51q0 31 21.5 53.5t57.5 22.5q37 0 58.5 -22.5t21.5 -53.5q0 -29 -21.5 -51t-58.5 -22q-36 0 -57.5 22zM196 28.5q-80 47.5 -123 132.5t-43 194q0 104 46 187t126 130t178 47q38 0 93 -11q40 -8 58 -8q46 0 84 19h14l46 -244l-47 -9
q-29 79 -88 128.5t-138 49.5q-46 0 -89 -27t-69.5 -78.5t-26.5 -120.5q0 -94 33.5 -166t88 -111t116.5 -39q76 0 118.5 50t62.5 116l47 -12q-8 -74 -44.5 -136.5t-101.5 -100.5t-153 -38q-108 0 -188 47.5z" />
    <glyph glyph-name="cdotaccent" unicode="&#x10b;" horiz-adv-x="550" 
d="M217.5 625q-21.5 22 -21.5 51q0 31 21.5 53.5t57.5 22.5q37 0 58.5 -22.5t21.5 -53.5q0 -29 -21.5 -51t-58.5 -22q-36 0 -57.5 22zM162 20q-66 39 -102 103.5t-36 138.5q0 85 37.5 148.5t102 97t142.5 33.5q65 0 119 -22.5t85.5 -60.5t31.5 -82q0 -31 -23.5 -55
t-54.5 -24q-32 0 -50.5 12.5t-28 30t-19.5 47.5q-14 42 -30.5 63t-55.5 21q-25 0 -47 -17t-36 -48t-14 -71q0 -111 48 -170t138 -59q44 0 82.5 23.5t59.5 53.5l32 -12q-14 -84 -69 -137t-161 -53q-85 0 -151 39z" />
    <glyph glyph-name="Ccaron" unicode="&#x10c;" horiz-adv-x="702" 
d="M211 922l140 -58l139 58l24 -40l-163 -143l-164 143zM196 28.5q-80 47.5 -123 132.5t-43 194q0 104 46 187t126 130t178 47q38 0 93 -11q40 -8 58 -8q46 0 84 19h14l46 -244l-47 -9q-29 79 -88 128.5t-138 49.5q-46 0 -89 -27t-69.5 -78.5t-26.5 -120.5q0 -94 33.5 -166
t88 -111t116.5 -39q76 0 118.5 50t62.5 116l47 -12q-8 -74 -44.5 -136.5t-101.5 -100.5t-153 -38q-108 0 -188 47.5z" />
    <glyph glyph-name="ccaron" unicode="&#x10d;" horiz-adv-x="550" 
d="M135 744l140 -58l138 58l25 -40l-163 -143l-164 143zM162 20q-66 39 -102 103.5t-36 138.5q0 85 37.5 148.5t102 97t142.5 33.5q65 0 119 -22.5t85.5 -60.5t31.5 -82q0 -31 -23.5 -55t-54.5 -24q-32 0 -50.5 12.5t-28 30t-19.5 47.5q-14 42 -30.5 63t-55.5 21
q-25 0 -47 -17t-36 -48t-14 -71q0 -111 48 -170t138 -59q44 0 82.5 23.5t59.5 53.5l32 -12q-14 -84 -69 -137t-161 -53q-85 0 -151 39z" />
    <glyph glyph-name="Dcaron" unicode="&#x10e;" horiz-adv-x="742" 
d="M166 882l24 40l140 -58l138 58l25 -40l-163 -143zM524.5 652.5q86.5 -47.5 137 -131.5t50.5 -188q0 -172 -97 -252.5t-257 -80.5h-331l-8 39q24 7 37.5 29.5t13.5 58.5v446q0 36 -13.5 58.5t-37.5 29.5l8 39h306q105 0 191.5 -47.5zM449 106.5q40 31.5 59 82.5t19 110
q0 82 -26 156.5t-78.5 121.5t-127.5 47l-36 -1v-540q43 -8 90 -8q60 0 100 31.5z" />
    <glyph glyph-name="dcaron" unicode="&#x10f;" horiz-adv-x="858" 
d="M583 68.5q14 -22.5 38 -29.5l-8 -39q-94 -3 -153 -20h-14l-17 69h-7q-33 -37 -70.5 -52.5t-86.5 -15.5q-69 0 -125 36t-88 100t-32 145t30 144.5t84.5 99t126.5 35.5q85 0 143 -63h6v95q0 35 -13.5 57.5t-37.5 29.5l8 39q53 8 106 28t97 49l13 -5q-14 -59 -14 -168v-477
q0 -35 14 -57.5zM805.5 684q31.5 -35 31.5 -95q0 -78 -47 -149t-123 -110l-36 52q45 30 71.5 67t40.5 86l-3 3q-20 -10 -31 -10q-41 0 -69.5 27t-28.5 70q0 42 33 68t80 26q50 0 81.5 -35zM384 98q25 37 25 96q0 53 -15.5 115.5t-48.5 107t-81 44.5q-41 0 -66.5 -38.5
t-25.5 -94.5q0 -50 16 -113t48.5 -108.5t79.5 -45.5q43 0 68 37z" />
    <glyph glyph-name="Dcroat" unicode="&#x110;" horiz-adv-x="778" 
d="M561 652.5q87 -47.5 137 -131.5t50 -188q0 -172 -97 -252.5t-257 -80.5h-331l-8 39q24 7 37.5 29.5t13.5 57.5v181h-105v86h105v180q0 36 -13.5 58.5t-37.5 29.5l8 39h306q105 0 192 -47.5zM485 106.5q40 31.5 59 82.5t19 110q0 82 -26 156.5t-78.5 121.5t-127.5 47
q-11 0 -37 -2v-229h102l1 -86h-103v-224q43 -8 91 -8q60 0 100 31.5z" />
    <glyph glyph-name="dcroat" unicode="&#x111;" horiz-adv-x="683" 
d="M574 127q0 -35 13.5 -57.5t37.5 -29.5l-8 -40q-94 -3 -153 -19h-14l-17 69h-7q-33 -38 -70 -53.5t-87 -15.5q-69 0 -125 36t-88 100t-32 145t30 145t84.5 99.5t125.5 35.5q87 0 143 -63h8v84h-135v56h127q-13 32 -44 42l8 39q53 8 106.5 28t98.5 49l12 -5
q-13 -58 -13 -153h100v-56h-100zM387.5 98q24.5 37 24.5 97q0 53 -15.5 115.5t-47.5 107t-80 44.5q-42 0 -67.5 -38.5t-25.5 -94.5q0 -50 16 -113t48.5 -109t80.5 -46q42 0 66.5 37z" />
    <glyph glyph-name="Emacron" unicode="&#x112;" horiz-adv-x="652" 
d="M171 788v77h310v-77h-310zM588 -19h-14q-15 8 -63 13.5t-83 5.5h-401l-8 39q24 7 37.5 29.5t13.5 57.5v447q0 36 -13.5 58.5t-37.5 29.5l8 39h549l40 -175l-41 -15q-23 48 -80.5 81t-146.5 33q-40 0 -89 -9v-220h158q36 0 59 14t29 38l40 -8v-165l-40 -8q-6 24 -29 38
t-58 14h-159v-232q70 -11 112 -11q79 0 140.5 38.5t97.5 93.5l41 -19z" />
    <glyph glyph-name="emacron" unicode="&#x113;" horiz-adv-x="592" 
d="M139 610v77h310v-77h-310zM460.5 130.5q37.5 24.5 57.5 54.5l32 -12q-5 -50 -35.5 -94t-83.5 -71t-120 -27q-84 0 -149.5 38.5t-101.5 103t-36 139.5q0 84 37 147.5t101.5 97.5t142.5 34q79 0 137 -37t82 -98q13 -33 35 -37l9 -49l-362 -105q42 -109 172 -109
q45 0 82.5 24.5zM216.5 425q-28.5 -39 -28.5 -93q0 -26 3 -50l193 56q-3 49 -28.5 87.5t-69.5 38.5q-41 0 -69.5 -39z" />
    <glyph glyph-name="Ebreve" unicode="&#x114;" horiz-adv-x="652" 
d="M226.5 800.5q-40.5 28.5 -57.5 73.5l51 29q10 -24 39.5 -38.5t66.5 -14.5t67 14t40 37l50 -27q-18 -45 -58 -73.5t-99 -28.5t-99.5 28.5zM588 -19h-14q-15 8 -63 13.5t-83 5.5h-401l-8 39q24 7 37.5 29.5t13.5 57.5v447q0 36 -13.5 58.5t-37.5 29.5l8 39h549l40 -175
l-41 -15q-23 48 -80.5 81t-146.5 33q-40 0 -89 -9v-220h158q36 0 59 14t29 38l40 -8v-165l-40 -8q-6 24 -29 38t-58 14h-159v-232q70 -11 112 -11q79 0 140.5 38.5t97.5 93.5l41 -19z" />
    <glyph glyph-name="ebreve" unicode="&#x115;" horiz-adv-x="592" 
d="M194.5 622.5q-40.5 28.5 -57.5 73.5l51 29q10 -24 39.5 -38.5t66.5 -14.5t67 14t40 37l50 -27q-18 -45 -58 -73.5t-99 -28.5t-99.5 28.5zM460.5 130.5q37.5 24.5 57.5 54.5l32 -12q-5 -50 -35.5 -94t-83.5 -71t-120 -27q-84 0 -149.5 38.5t-101.5 103t-36 139.5
q0 84 37 147.5t101.5 97.5t142.5 34q79 0 137 -37t82 -98q13 -33 35 -37l9 -49l-362 -105q42 -109 172 -109q45 0 82.5 24.5zM216.5 425q-28.5 -39 -28.5 -93q0 -26 3 -50l193 56q-3 49 -28.5 87.5t-69.5 38.5q-41 0 -69.5 -39z" />
    <glyph glyph-name="Edotaccent" unicode="&#x116;" horiz-adv-x="652" 
d="M268 803q-21 22 -21 51q0 30 21 53t57 23q37 0 58.5 -22.5t21.5 -53.5q0 -29 -21.5 -51t-58.5 -22q-36 0 -57 22zM588 -19h-14q-15 8 -63 13.5t-83 5.5h-401l-8 39q24 7 37.5 29.5t13.5 57.5v447q0 36 -13.5 58.5t-37.5 29.5l8 39h549l40 -175l-41 -15q-23 48 -80.5 81
t-146.5 33q-40 0 -89 -9v-220h158q36 0 59 14t29 38l40 -8v-165l-40 -8q-6 24 -29 38t-58 14h-159v-232q70 -11 112 -11q79 0 140.5 38.5t97.5 93.5l41 -19z" />
    <glyph glyph-name="edotaccent" unicode="&#x117;" horiz-adv-x="592" 
d="M236.5 625q-21.5 22 -21.5 51q0 31 21.5 53.5t57.5 22.5t57.5 -22.5t21.5 -53.5q0 -29 -21.5 -51t-57.5 -22t-57.5 22zM460.5 130.5q37.5 24.5 57.5 54.5l32 -12q-5 -50 -35.5 -94t-83.5 -71t-120 -27q-84 0 -149.5 38.5t-101.5 103t-36 139.5q0 84 37 147.5t101.5 97.5
t142.5 34q79 0 137 -37t82 -98q13 -33 35 -37l9 -49l-362 -105q42 -109 172 -109q45 0 82.5 24.5zM216.5 425q-28.5 -39 -28.5 -93q0 -26 3 -50l193 56q-3 49 -28.5 87.5t-69.5 38.5q-41 0 -69.5 -39z" />
    <glyph glyph-name="Eogonek" unicode="&#x118;" horiz-adv-x="652" 
d="M629 -200q-32 -20 -78 -20q-57 0 -90.5 30.5t-33.5 76.5q0 67 57 113h-457l-8 39q24 7 37.5 29.5t13.5 57.5v447q0 36 -13.5 58.5t-37.5 29.5l8 39h549l40 -175l-41 -15q-23 48 -80.5 81t-146.5 33q-40 0 -89 -9v-220h158q36 0 59 14t29 38l40 -8v-165l-40 -8
q-6 24 -29 38t-58 14h-159v-235q58 -8 112 -8q79 0 140.5 38.5t97.5 93.5l41 -19l-55 -188q-62 -42 -62 -102q0 -21 13.5 -35t33.5 -14q38 0 60 38l46 -24q-25 -43 -57 -63z" />
    <glyph glyph-name="eogonek" unicode="&#x119;" horiz-adv-x="592" 
d="M460.5 130.5q37.5 24.5 57.5 54.5l32 -12q-4 -44 -28.5 -83.5t-67 -67.5t-97.5 -37q-42 -39 -42 -87q0 -21 14 -35t34 -14q37 0 59 38l46 -24q-24 -43 -56 -63t-78 -20q-58 0 -91.5 30.5t-33.5 76.5q0 57 42 99q-68 13 -119.5 53.5t-79.5 98.5t-28 124q0 84 37 147.5
t101.5 97.5t142.5 34q79 0 137 -37t82 -98q13 -33 35 -37l9 -49l-362 -105q42 -109 172 -109q45 0 82.5 24.5zM216.5 425q-28.5 -39 -28.5 -93q0 -26 3 -50l193 56q-3 49 -28.5 87.5t-69.5 38.5q-41 0 -69.5 -39z" />
    <glyph glyph-name="Ecaron" unicode="&#x11a;" horiz-adv-x="652" 
d="M163 882l23 40l140 -58l139 58l24 -40l-163 -143zM588 -19h-14q-15 8 -63 13.5t-83 5.5h-401l-8 39q24 7 37.5 29.5t13.5 57.5v447q0 36 -13.5 58.5t-37.5 29.5l8 39h549l40 -175l-41 -15q-23 48 -80.5 81t-146.5 33q-40 0 -89 -9v-220h158q36 0 59 14t29 38l40 -8v-165
l-40 -8q-6 24 -29 38t-58 14h-159v-232q70 -11 112 -11q79 0 140.5 38.5t97.5 93.5l41 -19z" />
    <glyph glyph-name="ecaron" unicode="&#x11b;" horiz-adv-x="592" 
d="M131 704l23 40l140 -58l139 58l24 -40l-163 -143zM460.5 130.5q37.5 24.5 57.5 54.5l32 -12q-5 -50 -35.5 -94t-83.5 -71t-120 -27q-84 0 -149.5 38.5t-101.5 103t-36 139.5q0 84 37 147.5t101.5 97.5t142.5 34q79 0 137 -37t82 -98q13 -33 35 -37l9 -49l-362 -105
q42 -109 172 -109q45 0 82.5 24.5zM216.5 425q-28.5 -39 -28.5 -93q0 -26 3 -50l193 56q-3 49 -28.5 87.5t-69.5 38.5q-41 0 -69.5 -39z" />
    <glyph glyph-name="Gcircumflex" unicode="&#x11c;" horiz-adv-x="743" 
d="M208 777l163 143l163 -143l-23 -40l-140 59l-139 -59zM695.5 296.5q-13.5 -22.5 -13.5 -57.5v-239h-45l-46 58h-3q-79 -77 -204 -77q-108 0 -188 47.5t-123 132.5t-43 194q0 104 46 187t126 130t178 47q38 0 93 -11q40 -8 58 -8q46 0 84 19h14l46 -244l-47 -9
q-28 79 -87 128.5t-138 49.5q-48 0 -90.5 -30t-69 -84t-26.5 -124q0 -96 30.5 -168t85.5 -111t125 -39q18 0 38 5v146q0 38 -15.5 58t-48.5 29l8 39h285l8 -39q-24 -7 -37.5 -29.5z" />
    <glyph glyph-name="gcircumflex" unicode="&#x11d;" horiz-adv-x="579" 
d="M511.5 60.5q51.5 -31.5 51.5 -98.5q0 -89 -82.5 -137.5t-208.5 -48.5q-107 0 -177.5 26.5t-70.5 91.5q0 53 53 82v4q-52 30 -52 97q0 41 22.5 70t59.5 41v5q-69 56 -69 149q0 59 30 104t85 70t128 25q38 0 78 -8q14 27 29 43l-99 42l-139 -59l-25 40l164 143l149 -131
q24 10 56 10q34 0 57.5 -16t23.5 -47q0 -27 -14 -45.5t-43 -18.5q-14 0 -23 4.5t-20 13.5q-16 14 -29 14q-15 0 -29 -14q51 -25 79.5 -69t28.5 -104q0 -59 -30 -104t-84.5 -70t-127.5 -25q-66 0 -119 21q-11 -4 -17 -11t-6 -15q0 -24 45.5 -33.5t160.5 -9.5
q113 0 164.5 -31.5zM214.5 446q-19.5 -24 -19.5 -62q0 -33 12 -74t35.5 -70.5t57.5 -29.5q30 0 49 24t19 64q0 36 -11.5 76.5t-35 68t-56.5 27.5q-31 0 -50.5 -24zM351 -147q33 11 50.5 27t17.5 30q0 16 -9.5 23.5t-34.5 10t-77 2.5q-77 0 -129 7q-16 -7 -25.5 -19t-9.5 -26
q0 -29 34 -47.5t105 -18.5q45 0 78 11z" />
    <glyph glyph-name="Gbreve" unicode="&#x11e;" horiz-adv-x="743" 
d="M271.5 800.5q-40.5 28.5 -57.5 73.5l51 29q10 -24 39.5 -38.5t66.5 -14.5t67 14t40 37l50 -27q-18 -45 -58 -73.5t-99 -28.5t-99.5 28.5zM695.5 296.5q-13.5 -22.5 -13.5 -57.5v-239h-45l-46 58h-3q-79 -77 -204 -77q-108 0 -188 47.5t-123 132.5t-43 194q0 104 46 187
t126 130t178 47q38 0 93 -11q40 -8 58 -8q46 0 84 19h14l46 -244l-47 -9q-28 79 -87 128.5t-138 49.5q-48 0 -90.5 -30t-69 -84t-26.5 -124q0 -96 30.5 -168t85.5 -111t125 -39q18 0 38 5v146q0 38 -15.5 58t-48.5 29l8 39h285l8 -39q-24 -7 -37.5 -29.5z" />
    <glyph glyph-name="gbreve" unicode="&#x11f;" horiz-adv-x="579" 
d="M189.5 622.5q-40.5 28.5 -57.5 73.5l50 29q10 -24 40 -38.5t66 -14.5q38 0 68 14t40 37l50 -27q-18 -45 -58 -73.5t-100 -28.5q-58 0 -98.5 28.5zM511.5 60.5q51.5 -31.5 51.5 -98.5q0 -89 -82.5 -137.5t-208.5 -48.5q-107 0 -177.5 26.5t-70.5 91.5q0 53 53 82v4
q-52 30 -52 97q0 41 22.5 70t59.5 41v5q-69 56 -69 149q0 59 30 104t85 70t128 25q38 0 78 -8q45 88 135 88q34 0 57.5 -16t23.5 -47q0 -27 -14 -45.5t-43 -18.5q-14 0 -23 4.5t-20 13.5q-16 14 -29 14q-15 0 -29 -14q51 -25 79.5 -69t28.5 -104q0 -59 -30 -104t-84.5 -70
t-127.5 -25q-66 0 -119 21q-11 -4 -17 -11t-6 -15q0 -24 45.5 -33.5t160.5 -9.5q113 0 164.5 -31.5zM214.5 446q-19.5 -24 -19.5 -62q0 -33 12 -74t35.5 -70.5t57.5 -29.5q30 0 49 24t19 64q0 36 -11.5 76.5t-35 68t-56.5 27.5q-31 0 -50.5 -24zM351 -147q33 11 50.5 27
t17.5 30q0 16 -9.5 23.5t-34.5 10t-77 2.5q-77 0 -129 7q-16 -7 -25.5 -19t-9.5 -26q0 -29 34 -47.5t105 -18.5q45 0 78 11z" />
    <glyph glyph-name="Gdotaccent" unicode="&#x120;" horiz-adv-x="743" 
d="M313.5 803q-21.5 22 -21.5 51q0 31 21.5 53.5t57.5 22.5t57.5 -22.5t21.5 -53.5q0 -29 -21.5 -51t-57.5 -22t-57.5 22zM695.5 296.5q-13.5 -22.5 -13.5 -57.5v-239h-45l-46 58h-3q-79 -77 -204 -77q-108 0 -188 47.5t-123 132.5t-43 194q0 104 46 187t126 130t178 47
q38 0 93 -11q40 -8 58 -8q46 0 84 19h14l46 -244l-47 -9q-28 79 -87 128.5t-138 49.5q-48 0 -90.5 -30t-69 -84t-26.5 -124q0 -96 30.5 -168t85.5 -111t125 -39q18 0 38 5v146q0 38 -15.5 58t-48.5 29l8 39h285l8 -39q-24 -7 -37.5 -29.5z" />
    <glyph glyph-name="gdotaccent" unicode="&#x121;" horiz-adv-x="579" 
d="M231 625q-21 22 -21 51q0 30 21 53t57 23q37 0 58.5 -22.5t21.5 -53.5q0 -29 -21.5 -51t-58.5 -22q-36 0 -57 22zM511.5 60.5q51.5 -31.5 51.5 -98.5q0 -89 -82.5 -137.5t-208.5 -48.5q-107 0 -177.5 26.5t-70.5 91.5q0 53 53 82v4q-52 30 -52 97q0 41 22.5 70t59.5 41v5
q-69 56 -69 149q0 59 30 104t85 70t128 25q38 0 78 -8q45 88 135 88q34 0 57.5 -16t23.5 -47q0 -27 -14 -45.5t-43 -18.5q-14 0 -23 4.5t-20 13.5q-16 14 -29 14q-15 0 -29 -14q51 -25 79.5 -69t28.5 -104q0 -59 -30 -104t-84.5 -70t-127.5 -25q-66 0 -119 21
q-11 -4 -17 -11t-6 -15q0 -24 45.5 -33.5t160.5 -9.5q113 0 164.5 -31.5zM214.5 446q-19.5 -24 -19.5 -62q0 -33 12 -74t35.5 -70.5t57.5 -29.5q30 0 49 24t19 64q0 36 -11.5 76.5t-35 68t-56.5 27.5q-31 0 -50.5 -24zM351 -147q33 11 50.5 27t17.5 30q0 16 -9.5 23.5
t-34.5 10t-77 2.5q-77 0 -129 7q-16 -7 -25.5 -19t-9.5 -26q0 -29 34 -47.5t105 -18.5q45 0 78 11z" />
    <glyph glyph-name="uni0122" unicode="&#x122;" horiz-adv-x="744" 
d="M695.5 296.5q-13.5 -22.5 -13.5 -57.5v-239h-45l-46 58h-3q-79 -77 -204 -77q-108 0 -188 47.5t-123 132.5t-43 194q0 104 46 187t126 130t178 47q38 0 93 -11q40 -8 58 -8q46 0 84 19h14l46 -244l-47 -9q-28 79 -87 128.5t-138 49.5q-48 0 -90.5 -30t-69 -84t-26.5 -124
q0 -96 30.5 -168t85.5 -111t125 -39q18 0 38 5v146q0 38 -15.5 58t-48.5 29l8 39h285l8 -39q-24 -7 -37.5 -29.5zM467 -92q32 -35 32 -95q0 -79 -47.5 -150t-122.5 -109l-36 52q44 29 70.5 66.5t40.5 86.5l-3 3q-15 -10 -31 -10q-41 0 -69.5 27t-28.5 69t33 68.5t80 26.5
q50 0 82 -35z" />
    <glyph glyph-name="uni0123" unicode="&#x123;" horiz-adv-x="577" 
d="M202.5 633q-31.5 35 -31.5 95q0 78 47.5 149t122.5 110l36 -52q-44 -30 -70.5 -67t-41.5 -86l3 -4q18 11 32 11q41 0 69 -27t28 -70q0 -42 -33 -68t-79 -26q-51 0 -82.5 35zM511.5 60.5q51.5 -31.5 51.5 -98.5q0 -89 -82.5 -137.5t-208.5 -48.5q-107 0 -177.5 26.5
t-70.5 91.5q0 53 53 82v4q-52 30 -52 97q0 41 22.5 70t59.5 41v5q-69 56 -69 149q0 59 30 104t85 70t128 25q38 0 78 -8q45 88 135 88q34 0 57.5 -16t23.5 -47q0 -27 -14 -45.5t-43 -18.5q-14 0 -23 4.5t-20 13.5q-16 14 -29 14q-15 0 -29 -14q51 -25 79.5 -69t28.5 -104
q0 -59 -30 -104t-84.5 -70t-127.5 -25q-66 0 -119 21q-11 -4 -17 -11t-6 -15q0 -24 45.5 -33.5t160.5 -9.5q113 0 164.5 -31.5zM214.5 446q-19.5 -24 -19.5 -62q0 -33 12 -74t35.5 -70.5t57.5 -29.5q30 0 49 24t19 64q0 36 -11.5 76.5t-35 68t-56.5 27.5q-31 0 -50.5 -24z
M351 -147q33 11 50.5 27t17.5 30q0 16 -9.5 23.5t-34.5 10t-77 2.5q-77 0 -129 7q-16 -7 -25.5 -19t-9.5 -26q0 -29 34 -47.5t105 -18.5q45 0 78 11z" />
    <glyph glyph-name="Hcircumflex" unicode="&#x124;" horiz-adv-x="772" 
d="M222 777l164 143l163 -143l-24 -40l-139 59l-139 -59zM715.5 68.5q14.5 -22.5 37.5 -29.5l-8 -39h-274l-8 39q23 7 37 29.5t14 57.5v186h-256v-186q0 -35 14 -57.5t38 -29.5l-8 -39h-275l-8 39q24 7 37.5 29.5t13.5 57.5v447q0 36 -13.5 58.5t-37.5 29.5l8 39h274l9 -39
q-24 -7 -38 -29.5t-14 -58.5v-175h256v175q0 36 -14 58.5t-37 29.5l8 39h274l8 -39q-23 -7 -37.5 -30t-14.5 -58v-447q0 -35 14.5 -57.5z" />
    <glyph glyph-name="hcircumflex" unicode="&#x125;" horiz-adv-x="660" 
d="M10 781l-24 40l164 143l163 -143l-24 -40l-139 59zM605 68q16 -22 41 -29l-8 -39h-247l-8 39q20 6 31.5 24t11.5 47q0 11 -1 16l-26 247q-4 42 -27 64.5t-56 22.5q-37 0 -62 -24t-25 -65v-245q0 -36 14 -58t39 -29l-9 -39h-247l-8 39q24 7 37.5 29t13.5 58v447
q0 36 -13.5 58.5t-37.5 28.5l8 39q54 8 107.5 28.5t97.5 49.5l12 -5q-14 -60 -14 -169v-120h8q20 26 54 42.5t75 16.5q86 0 138.5 -53t62.5 -161l18 -202q4 -36 20 -58z" />
    <glyph glyph-name="Hbar" unicode="&#x126;" horiz-adv-x="829" 
d="M744 68.5q14 -22.5 37 -29.5l-8 -39h-274l-8 39q23 7 37 29.5t14 57.5v186h-255v-186q0 -35 13.5 -57.5t37.5 -29.5l-8 -39h-275l-8 39q24 7 37.5 29.5t13.5 57.5v349h-87v56h87v42q0 36 -13.5 58.5t-37.5 29.5l8 39h275l8 -39q-24 -7 -37.5 -29.5t-13.5 -58.5v-42h255
v42q0 36 -14 58.5t-37 29.5l8 39h274l8 -39q-23 -7 -37 -29.5t-14 -58.5v-42h86l2 -56h-88v-349q0 -35 14 -57.5zM542 475h-255v-77h255v77z" />
    <glyph glyph-name="hbar" unicode="&#x127;" horiz-adv-x="706" 
d="M652 68.5q16 -22.5 40 -29.5l-8 -39h-246l-9 39q23 7 34.5 29.5t8.5 57.5l-27 246q-4 43 -26 65.5t-53 23.5q-37 0 -63.5 -24.5t-26.5 -64.5v-246q0 -35 14.5 -57.5t37.5 -29.5l-8 -39h-247l-8 39q24 7 37.5 29.5t13.5 57.5v437h-110v56h102q-12 33 -43 42l8 39
q52 8 106 28t99 49l12 -6q-14 -61 -14 -152h125v-56h-125v-80h8q20 25 54 41.5t75 16.5q86 0 138 -53t62 -160l19 -202q4 -35 20 -57.5z" />
    <glyph glyph-name="Itilde" unicode="&#x128;" horiz-adv-x="329" 
d="M190 792.5q-18 7.5 -40 20.5q-18 10 -30.5 15.5t-25.5 5.5q-14 0 -25.5 -9.5t-15.5 -28.5l-52 13q7 61 35 87.5t64 26.5q21 0 39.5 -7t41.5 -20q20 -11 32 -16t25 -5q14 0 25 9t16 28l50 -12q-7 -62 -35 -88.5t-64 -26.5q-22 0 -40 7.5zM56.5 68.5q13.5 22.5 13.5 57.5
v447q0 36 -13.5 58.5t-37.5 29.5l8 39h275l8 -39q-24 -7 -37.5 -29.5t-13.5 -58.5v-447q0 -35 13.5 -57.5t37.5 -29.5l-8 -39h-275l-8 39q24 7 37.5 29.5z" />
    <glyph glyph-name="itilde" unicode="&#x129;" horiz-adv-x="300" 
d="M175.5 614q-17.5 7 -40.5 20q-17 11 -30 16.5t-26 5.5q-14 0 -25.5 -9.5t-15.5 -28.5l-52 13q7 61 35 87.5t64 26.5q21 0 39.5 -7t41.5 -20q20 -11 32 -16t25 -5q14 0 25 9t15 28l50 -12q-6 -62 -34 -88.5t-65 -26.5q-21 0 -38.5 7zM55.5 68q13.5 22 13.5 58v217
q0 35 -13.5 57.5t-37.5 29.5l8 39q105 16 189 73h14v-416q0 -36 14 -58t39 -29l-9 -39h-247l-8 39q24 7 37.5 29z" />
    <glyph glyph-name="Imacron" unicode="&#x12a;" horiz-adv-x="329" 
d="M320 865v-77h-310v77h310zM56.5 68.5q13.5 22.5 13.5 57.5v447q0 36 -13.5 58.5t-37.5 29.5l8 39h275l8 -39q-24 -7 -37.5 -29.5t-13.5 -58.5v-447q0 -35 13.5 -57.5t37.5 -29.5l-8 -39h-275l-8 39q24 7 37.5 29.5z" />
    <glyph glyph-name="imacron" unicode="&#x12b;" horiz-adv-x="300" 
d="M304 687v-77h-309v77h309zM55.5 68q13.5 22 13.5 58v217q0 35 -13.5 57.5t-37.5 29.5l8 39q105 16 189 73h14v-416q0 -36 14 -58t39 -29l-9 -39h-247l-8 39q24 7 37.5 29z" />
    <glyph glyph-name="Iogonek" unicode="&#x12e;" horiz-adv-x="329" 
d="M263 -200q-32 -20 -78 -20q-57 0 -90.5 30.5t-33.5 76.5q0 67 57 113h-91l-8 39q24 7 37.5 29.5t13.5 57.5v447q0 36 -13.5 58.5t-37.5 29.5l8 39h275l8 -39q-24 -7 -37.5 -29.5t-13.5 -58.5v-447q0 -35 13.5 -57.5t37.5 -29.5l-8 -39h-73q-62 -42 -62 -102
q0 -21 13.5 -35t33.5 -14q21 0 35 10.5t25 27.5l46 -24q-25 -43 -57 -63z" />
    <glyph glyph-name="iogonek" unicode="&#x12f;" horiz-adv-x="303" 
d="M78 611.5q-26 26.5 -26 62.5t26 63.5t71 27.5q44 0 70.5 -27.5t26.5 -63.5t-26.5 -62.5t-70.5 -26.5q-45 0 -71 26.5zM229 -200q-32 -20 -78 -20q-57 0 -90.5 30.5t-33.5 76.5q0 67 57 113h-55l-8 39q24 7 38 29t14 58v217q0 35 -14 57.5t-38 29.5l8 39q105 16 189 73h15
v-416q0 -36 13.5 -58t38.5 -29l-9 -39h-82q-29 -20 -45.5 -46t-16.5 -56q0 -21 14 -35t34 -14q36 0 60 38l46 -24q-25 -43 -57 -63z" />
    <glyph glyph-name="Idotaccent" unicode="&#x130;" horiz-adv-x="329" 
d="M107 803q-21 22 -21 51q0 30 21 53t57 23q37 0 58.5 -22.5t21.5 -53.5q0 -29 -21.5 -51t-58.5 -22q-36 0 -57 22zM56.5 68.5q13.5 22.5 13.5 57.5v447q0 36 -13.5 58.5t-37.5 29.5l8 39h275l8 -39q-24 -7 -37.5 -29.5t-13.5 -58.5v-447q0 -35 13.5 -57.5t37.5 -29.5
l-8 -39h-275l-8 39q24 7 37.5 29.5z" />
    <glyph glyph-name="dotlessi" unicode="&#x131;" horiz-adv-x="300" 
d="M55.5 68q13.5 22 13.5 58v217q0 35 -13.5 57.5t-37.5 29.5l8 39q105 16 189 73h14v-416q0 -36 14 -58t39 -29l-9 -39h-247l-8 39q24 7 37.5 29z" />
    <glyph glyph-name="IJ" unicode="&#x132;" horiz-adv-x="667" 
d="M55 68.5q14 22.5 14 57.5v447q0 36 -14 58.5t-38 29.5l8 39h275l8 -39q-24 -7 -37.5 -29.5t-13.5 -58.5v-447q0 -35 13.5 -57.5t37.5 -29.5l-8 -39h-275l-8 39q24 7 38 29.5zM212 -199q-42 31 -42 79q0 34 22.5 55.5t55.5 21.5q37 0 54 -16.5t31 -45.5q10 -20 17 -28.5
t20 -8.5q24 0 33.5 32.5t9.5 104.5v578q0 36 -13.5 58.5t-37.5 29.5l9 39h274l8 -39q-24 -7 -37.5 -29.5t-13.5 -58.5v-538q0 -140 -74 -202.5t-190 -62.5q-84 0 -126 31z" />
    <glyph glyph-name="ij" unicode="&#x133;" horiz-adv-x="576" 
d="M83 611.5q-26 26.5 -26 62.5t26 63.5t70 27.5t70.5 -27.5t26.5 -63.5t-26.5 -62.5t-70.5 -26.5t-70 26.5zM366 611.5q-26 26.5 -26 62.5t26 63.5t71 27.5q44 0 70.5 -27.5t26.5 -63.5t-26.5 -62.5t-70.5 -26.5q-45 0 -71 26.5zM63 68q14 22 14 58v217q0 35 -14 57.5
t-37 29.5l8 39q105 17 189 73h14v-416q0 -36 14 -58t38 -29l-9 -39h-246l-8 39q23 7 37 29zM220 -192.5q-41 31.5 -41 80.5q0 28 19.5 48.5t50.5 20.5q28 0 42.5 -10.5t19 -25t7.5 -39.5q3 -27 9.5 -40t27.5 -13q18 0 28 21t10 51q0 17 -4.5 37t-9.5 39q-9 29 -13.5 52.5
t-4.5 50.5v263q0 35 -14 57.5t-38 29.5l8 39q106 17 190 73h14l1 -571q0 -88 -48 -141.5t-142 -53.5q-71 0 -112 31.5z" />
    <glyph glyph-name="Jcircumflex" unicode="&#x134;" horiz-adv-x="341" 
d="M171 920l163 -143l-24 -40l-139 59l-139 -59l-25 40zM-113.5 -185q-42.5 31 -42.5 79q0 34 22.5 56t55.5 22q37 0 54.5 -16.5t30.5 -46.5q10 -20 17 -28.5t20 -8.5q24 0 34 33t10 104v564q0 36 -14 58.5t-38 29.5l9 39h274l8 -39q-24 -7 -37.5 -29.5t-13.5 -58.5v-524
q0 -140 -73.5 -202.5t-189.5 -62.5q-84 0 -126.5 31z" />
    <glyph glyph-name="jcircumflex" unicode="&#x135;" horiz-adv-x="287" 
d="M144 742l163 -143l-24 -40l-139 59l-139 -59l-25 40zM-74.5 -192.5q-41.5 31.5 -41.5 80.5q0 28 20 48.5t51 20.5q28 0 42 -10.5t18.5 -25t7.5 -38.5q3 -27 10 -40.5t28 -13.5q18 0 28 21t10 51q0 29 -15 76q-9 29 -13.5 52.5t-4.5 50.5v263q0 35 -13.5 57.5t-37.5 29.5
l8 39q105 16 189 73h14l1 -571q0 -88 -47.5 -141.5t-142.5 -53.5q-70 0 -111.5 31.5z" />
    <glyph glyph-name="uni0136" unicode="&#x136;" horiz-adv-x="772" 
d="M779 39l-8 -39h-310l-7 39q12 4 18.5 13.5t6.5 23.5q0 22 -17 50l-132 217h-6l-65 -59v-158q0 -35 13.5 -57.5t37.5 -29.5l-8 -39h-275l-8 39q24 7 37.5 29.5t13.5 57.5v447q0 36 -13.5 58.5t-37.5 29.5l8 39h275l8 -39q-24 -7 -37.5 -29.5t-13.5 -58.5v-173h6l189 173
q32 29 32 52q0 13 -8 22.5t-19 13.5l8 39h256l8 -39q-32 -7 -73.5 -30t-79.5 -58l-108 -98l212 -349q46 -74 97 -87zM437.5 -92q31.5 -35 31.5 -95q0 -79 -47.5 -150t-122.5 -109l-36 52q44 29 70.5 66.5t41.5 86.5l-3 3q-20 -10 -32 -10q-41 0 -69 26.5t-28 69.5
q0 42 33 68.5t79 26.5q51 0 82.5 -35z" />
    <glyph glyph-name="uni0137" unicode="&#x137;" horiz-adv-x="641" 
d="M595.5 68q28.5 -22 56.5 -29l-8 -39h-276l-8 39q19 6 19 27q0 23 -24 60l-89 137h-7l-30 -34v-103q0 -36 14 -58t38 -29l-8 -39h-247l-8 39q23 7 37 29t14 58v447q0 36 -14 58.5t-37 28.5l8 39q53 8 106.5 28.5t97.5 49.5l13 -5q-14 -60 -14 -169v-259h7l82 95
q40 49 81 76t98 27t91 -27t34 -73q0 -43 -21.5 -70.5t-62.5 -27.5q-27 0 -42.5 10t-31.5 29q-11 14 -21 21t-25 7q-18 0 -43 -22l169 -263q23 -36 51.5 -58zM400.5 -92q31.5 -35 31.5 -95q0 -79 -47.5 -150t-122.5 -109l-36 52q44 29 70.5 66.5t41.5 86.5l-3 3
q-20 -10 -32 -10q-41 0 -69 26.5t-28 69.5q0 42 33 68.5t79 26.5q51 0 82.5 -35z" />
    <glyph glyph-name="kgreenlandic" unicode="&#x138;" horiz-adv-x="636" 
d="M595.5 68q28.5 -22 56.5 -29l-8 -39h-276l-8 39q19 6 19 27q0 23 -24 60l-89 137h-7l-30 -34v-103q0 -36 14 -58t38 -29l-8 -39h-247l-8 39q23 7 37 29t14 58v217q0 35 -14 57.5t-37 28.5l8 40q52 8 95 25t88 48h21v-198h6l82 95q40 49 81 76t98 27t91 -27t34 -73
q0 -43 -21.5 -70.5t-62.5 -27.5q-27 0 -42.5 10t-31.5 29q-11 14 -21 21t-25 7q-18 0 -43 -22l169 -263q23 -36 51.5 -58z" />
    <glyph glyph-name="Lacute" unicode="&#x139;" horiz-adv-x="634" 
d="M122 773l103 129q17 21 32 30.5t36 9.5t35.5 -14t14.5 -33q0 -21 -11 -36t-31 -27l-140 -90zM564 -19h-15q-14 8 -62 13.5t-83 5.5h-377l-8 39q24 7 37.5 29.5t13.5 57.5v447q0 36 -13.5 58.5t-37.5 29.5l8 39h275l8 -39q-24 -7 -37.5 -29.5t-13.5 -58.5v-491
q53 -7 87 -7q79 0 142.5 43t102.5 104l41 -19z" />
    <glyph glyph-name="lacute" unicode="&#x13a;" horiz-adv-x="300" 
d="M185 936q17 21 32 30.5t36 9.5t35.5 -14t14.5 -33q0 -21 -11 -36t-31 -27l-140 -90l-39 31zM56 68q14 22 14 58v447q0 36 -14 58.5t-38 28.5l9 39q53 8 106.5 28.5t97.5 49.5l12 -5q-13 -56 -13 -169v-477q0 -36 14 -58t38 -29l-8 -39h-247l-9 39q24 7 38 29z" />
    <glyph glyph-name="uni013B" unicode="&#x13b;" horiz-adv-x="636" 
d="M564 -19h-15q-14 8 -62 13.5t-83 5.5h-377l-8 39q24 7 37.5 29.5t13.5 57.5v447q0 36 -13.5 58.5t-37.5 29.5l8 39h275l8 -39q-24 -7 -37.5 -29.5t-13.5 -58.5v-491q53 -7 87 -7q79 0 142.5 43t102.5 104l41 -19zM402.5 -92q31.5 -35 31.5 -95q0 -79 -47.5 -150
t-122.5 -109l-36 52q45 29 71.5 66.5t40.5 86.5l-3 3q-17 -10 -32 -10q-40 0 -68.5 27t-28.5 69t33 68.5t80 26.5q50 0 81.5 -35z" />
    <glyph glyph-name="uni013C" unicode="&#x13c;" horiz-adv-x="299" 
d="M27 0l-9 39q24 7 38 29t14 58v447q0 36 -14 58.5t-38 28.5l9 39q53 8 106.5 28.5t97.5 49.5l12 -5q-13 -56 -13 -169v-477q0 -36 14 -58t38 -29l-8 -39h-247zM243 -92q32 -35 32 -95q0 -79 -47.5 -150t-122.5 -109l-36 52q44 29 70.5 66.5t40.5 86.5l-3 3
q-15 -10 -31 -10q-41 0 -69.5 27t-28.5 69t33 68.5t80 26.5q50 0 82 -35z" />
    <glyph glyph-name="Lcaron" unicode="&#x13d;" horiz-adv-x="634" 
d="M377.5 555q-28.5 27 -28.5 70q0 42 33 68t80 26q50 0 82 -35t32 -95q0 -78 -47.5 -149t-122.5 -110l-36 52q44 30 70.5 67.5t40.5 85.5l-3 4q-17 -11 -31 -11q-41 0 -69.5 27zM564 -19h-15q-14 8 -62 13.5t-83 5.5h-377l-8 39q24 7 37.5 29.5t13.5 57.5v447
q0 36 -13.5 58.5t-37.5 29.5l8 39h275l8 -39q-24 -7 -37.5 -29.5t-13.5 -58.5v-491q53 -7 87 -7q79 0 142.5 43t102.5 104l41 -19z" />
    <glyph glyph-name="lcaron" unicode="&#x13e;" horiz-adv-x="534" 
d="M246 68q14 -22 38 -29l-8 -39h-247l-9 39q24 7 38 29t14 58v447q0 36 -14 58.5t-38 28.5l9 39q53 8 106.5 28.5t97.5 49.5l12 -5q-13 -56 -13 -169v-477q0 -36 14 -58zM466.5 684q31.5 -35 31.5 -95q0 -78 -47.5 -149t-122.5 -110l-36 52q44 30 70.5 67t41.5 86l-3 4
q-18 -11 -32 -11q-41 0 -69 27t-28 70q0 42 33 68t79 26q51 0 82.5 -35z" />
    <glyph glyph-name="Ldot" unicode="&#x13f;" horiz-adv-x="634" 
d="M564 -19h-15q-14 8 -62 13.5t-83 5.5h-377l-8 39q24 7 37.5 29.5t13.5 57.5v447q0 36 -13.5 58.5t-37.5 29.5l8 39h275l8 -39q-24 -7 -37.5 -29.5t-13.5 -58.5v-491q53 -7 87 -7q79 0 142.5 43t102.5 104l41 -19zM359 284.5q-31 29.5 -31 75.5t31 75.5t75 29.5
q45 0 75.5 -29.5t30.5 -75.5t-30.5 -75.5t-75.5 -29.5q-44 0 -75 29.5z" />
    <glyph glyph-name="ldot" unicode="&#x140;" horiz-adv-x="473" 
d="M59 68.5q14 22.5 14 57.5v447q0 36 -14.5 58.5t-37.5 28.5l8 39q53 8 106.5 28.5t98.5 49.5l12 -5q-13 -56 -13 -169v-477q0 -36 13.5 -58t37.5 -29l-8 -39h-247l-8 39q24 7 38 29.5zM304 284.5q-31 29.5 -31 75.5t31 75.5t75 29.5q45 0 75.5 -29.5t30.5 -75.5
t-30.5 -75.5t-75.5 -29.5q-44 0 -75 29.5z" />
    <glyph glyph-name="Lslash" unicode="&#x141;" horiz-adv-x="661" 
d="M590 -19h-14q-15 8 -63.5 13.5t-82.5 5.5h-376l-8 39q23 7 37 29.5t14 57.5v160l-91 -54v56l91 54v231q0 36 -14 58.5t-37 29.5l8 39h274l8 -39q-23 -7 -37 -29.5t-14 -58.5v-120l90 53l1 -56l-91 -54v-313q53 -7 88 -7q78 0 142 43t103 104l41 -20z" />
    <glyph glyph-name="lslash" unicode="&#x142;" horiz-adv-x="312" 
d="M236 126q0 -35 13.5 -57.5t37.5 -29.5l-8 -39h-247l-8 39q24 7 38 29.5t14 57.5v87l-62 -37v55l62 37v305q0 36 -14 58.5t-38 29.5l8 39q53 8 106.5 28t98.5 49l13 -6q-14 -55 -14 -168v-240l63 37v-56l-63 -37v-181z" />
    <glyph glyph-name="Nacute" unicode="&#x143;" horiz-adv-x="710" 
d="M307 773l103 129q17 21 32 30.5t37 9.5q21 0 35 -14t14 -33q0 -21 -11 -36t-31 -27l-140 -90zM659.5 631q-14.5 -23 -14.5 -58v-573h-90q-15 46 -43 84.5t-62 69.5t-89 76q-77 63 -126 112t-84 113h-4v-329q0 -35 13.5 -57.5t37.5 -29.5l-8 -39h-163l-8 39
q24 7 37.5 29.5t13.5 57.5v447q0 36 -13.5 58.5t-37.5 29.5l8 39h156q48 -82 101.5 -138.5t129.5 -123.5q58 -52 92.5 -88.5t58.5 -80.5h5v304q0 36 -14 58.5t-38 29.5l8 39h164l7 -39q-23 -7 -37.5 -30z" />
    <glyph glyph-name="nacute" unicode="&#x144;" horiz-adv-x="657" 
d="M252 595l103 129q16 20 31 30t37 10q21 0 35 -14t14 -33q0 -22 -11 -36.5t-30 -26.5l-141 -90zM598 68q16 -22 41 -29l-8 -39h-247l-9 39q21 6 32 24t11 47q0 10 -1 16l-22 214q-4 46 -25 74t-59 28q-37 0 -60 -29.5t-23 -72.5v-214q0 -35 14.5 -57.5t38.5 -29.5l-8 -39
h-247l-7 39q23 7 36.5 29t13.5 58v212q0 35 -13.5 57.5t-37.5 29.5l8 39q50 8 91.5 26.5t88.5 51.5h14l4 -78h6q23 35 58 56.5t82 21.5q85 0 132.5 -52.5t57.5 -161.5l18 -202q4 -36 20 -58z" />
    <glyph glyph-name="uni0145" unicode="&#x145;" horiz-adv-x="711" 
d="M659.5 631q-14.5 -23 -14.5 -58v-573h-90q-15 46 -43 84.5t-62 69.5t-89 76q-77 63 -126 112t-84 113h-4v-329q0 -35 13.5 -57.5t37.5 -29.5l-8 -39h-163l-8 39q24 7 37.5 29.5t13.5 57.5v447q0 36 -13.5 58.5t-37.5 29.5l8 39h156q48 -82 101.5 -138.5t129.5 -123.5
q58 -52 92.5 -88.5t58.5 -80.5h5v304q0 36 -14 58.5t-38 29.5l8 39h164l7 -39q-23 -7 -37.5 -30zM448 -92q32 -35 32 -95q0 -79 -47.5 -150t-122.5 -109l-36 52q44 29 70.5 66.5t40.5 86.5l-3 3q-15 -10 -31 -10q-41 0 -69.5 27t-28.5 69t33 68.5t80 26.5q50 0 82 -35z" />
    <glyph glyph-name="uni0146" unicode="&#x146;" horiz-adv-x="656" 
d="M598 68q16 -22 41 -29l-8 -39h-247l-9 39q21 6 32 24t11 47q0 10 -1 16l-22 214q-4 46 -25 74t-59 28q-37 0 -60 -29.5t-23 -72.5v-214q0 -35 14.5 -57.5t38.5 -29.5l-8 -39h-247l-7 39q23 7 36.5 29t13.5 58v212q0 35 -13.5 57.5t-37.5 29.5l8 39q50 8 91.5 26.5
t88.5 51.5h14l4 -78h6q23 35 58 56.5t82 21.5q85 0 132.5 -52.5t57.5 -161.5l18 -202q4 -36 20 -58zM409 -92q32 -35 32 -95q0 -79 -47.5 -150t-122.5 -109l-36 52q44 29 70.5 66.5t40.5 86.5l-3 3q-15 -10 -31 -10q-41 0 -69.5 27t-28.5 69t33 68.5t80 26.5q50 0 82 -35z
" />
    <glyph glyph-name="Ncaron" unicode="&#x147;" horiz-adv-x="710" 
d="M191 882l24 40l140 -58l139 58l24 -40l-163 -143zM659.5 631q-14.5 -23 -14.5 -58v-573h-90q-15 46 -43 84.5t-62 69.5t-89 76q-77 63 -126 112t-84 113h-4v-329q0 -35 13.5 -57.5t37.5 -29.5l-8 -39h-163l-8 39q24 7 37.5 29.5t13.5 57.5v447q0 36 -13.5 58.5
t-37.5 29.5l8 39h156q48 -82 101.5 -138.5t129.5 -123.5q58 -52 92.5 -88.5t58.5 -80.5h5v304q0 36 -14 58.5t-38 29.5l8 39h164l7 -39q-23 -7 -37.5 -30z" />
    <glyph glyph-name="ncaron" unicode="&#x148;" horiz-adv-x="657" 
d="M165 704l24 40l140 -58l138 58l25 -40l-163 -143zM598 68q16 -22 41 -29l-8 -39h-247l-9 39q21 6 32 24t11 47q0 10 -1 16l-22 214q-4 46 -25 74t-59 28q-37 0 -60 -29.5t-23 -72.5v-214q0 -35 14.5 -57.5t38.5 -29.5l-8 -39h-247l-7 39q23 7 36.5 29t13.5 58v212
q0 35 -13.5 57.5t-37.5 29.5l8 39q50 8 91.5 26.5t88.5 51.5h14l4 -78h6q23 35 58 56.5t82 21.5q85 0 132.5 -52.5t57.5 -161.5l18 -202q4 -36 20 -58z" />
    <glyph glyph-name="napostrophe" unicode="&#x149;" horiz-adv-x="868" 
d="M212.5 684q31.5 -35 31.5 -95q0 -78 -47.5 -149t-122.5 -110l-36 52q44 30 70.5 67t41.5 86l-3 4q-18 -11 -32 -11q-41 0 -69 27t-28 70q0 42 33 68t79 26q51 0 82.5 -35zM808.5 68.5q16.5 -22.5 41.5 -29.5l-9 -39h-246l-9 39q21 6 32 24t11 47q0 10 -1 16l-22 214
q-5 47 -25.5 74.5t-58.5 27.5q-37 0 -60 -29.5t-23 -72.5v-214q0 -35 14.5 -57.5t38.5 -29.5l-9 -39h-246l-8 39q23 7 37 29t14 58v212q0 35 -14 57.5t-37 29.5l8 39q49 8 91 27t89 51h14l4 -78h6q23 35 58 56.5t82 21.5q85 0 132.5 -52.5t57.5 -161.5l18 -202
q3 -35 19.5 -57.5z" />
    <glyph glyph-name="Eng" unicode="&#x14a;" horiz-adv-x="710" 
d="M659 631.5q-14 -22.5 -14 -58.5v-591q0 -99 -43.5 -155.5t-140.5 -56.5q-68 0 -113.5 28t-45.5 74q0 29 18 48t45 19q29 0 43 -12.5t26 -37.5q11 -22 23 -33.5t36 -11.5q36 0 55.5 36t19.5 102v24q-22 63 -69 111t-130 112q-81 63 -132 112t-87 114h-4v-329
q0 -35 14 -57.5t38 -29.5l-8 -39h-163l-8 39q24 7 37.5 29.5t13.5 57.5v447q0 36 -13.5 58.5t-37.5 29.5l8 39h149q48 -81 101.5 -136.5t133.5 -123.5q60 -50 95 -86t59 -80h3v299q0 36 -14 58.5t-38 29.5l9 39h164l8 -39q-24 -7 -38 -29.5z" />
    <glyph glyph-name="eng" unicode="&#x14b;" horiz-adv-x="631" 
d="M523 488.5q46 -52.5 45 -160.5v-357q0 -89 -53.5 -142t-159.5 -53q-46 0 -86 14t-63.5 39t-23.5 57q0 28 17.5 48t48.5 20t42 -17t17 -50q5 -29 13 -43.5t31 -14.5q53 0 53 147l1 364q0 46 -20.5 74t-58.5 28q-39 0 -68 -30t-29 -71v-215q0 -35 14 -57.5t38 -29.5l-8 -39
h-247l-8 39q24 7 37.5 29.5t13.5 57.5v212q0 35 -13.5 57.5t-37.5 29.5l8 39q48 8 89.5 26.5t90.5 50.5h14l4 -78h8q21 33 65 55.5t93 22.5q87 0 133 -52.5z" />
    <glyph glyph-name="Omacron" unicode="&#x14c;" horiz-adv-x="764" 
d="M537 865v-77h-309v77h309zM208.5 27.5q-81.5 46.5 -130 130t-48.5 189.5q0 109 43.5 193.5t123 131.5t184.5 47q94 0 175 -48t129.5 -133t48.5 -193q0 -107 -46 -189.5t-126 -128.5t-179 -46q-93 0 -174.5 46.5zM491 81q28 26 43.5 67.5t15.5 88.5q0 86 -28 181.5
t-79.5 160.5t-117.5 65q-36 0 -64 -25.5t-43.5 -68t-15.5 -90.5q0 -94 28 -188.5t79 -155.5t117 -61q37 0 65 26z" />
    <glyph glyph-name="omacron" unicode="&#x14d;" horiz-adv-x="599" 
d="M454 687v-77h-309v77h309zM155.5 17q-63.5 36 -97.5 100.5t-34 145.5t34 144.5t96 99t145 35.5t145.5 -36t96.5 -100t34 -146q0 -81 -33.5 -144.5t-95.5 -99t-144 -35.5q-83 0 -146.5 36zM400 98q21 37 21 96q0 42 -18.5 106t-54 112.5t-83.5 48.5q-44 0 -65.5 -36.5
t-21.5 -96.5q0 -45 18.5 -109t54 -111t84.5 -47q44 0 65 37z" />
    <glyph glyph-name="Obreve" unicode="&#x14e;" horiz-adv-x="764" 
d="M283.5 800.5q-40.5 28.5 -58.5 73.5l51 29q10 -24 39.5 -38.5t66.5 -14.5t67 14t40 37l50 -27q-17 -45 -57.5 -73.5t-99.5 -28.5q-58 0 -98.5 28.5zM208.5 27.5q-81.5 46.5 -130 130t-48.5 189.5q0 109 43.5 193.5t123 131.5t184.5 47q94 0 175 -48t129.5 -133t48.5 -193
q0 -107 -46 -189.5t-126 -128.5t-179 -46q-93 0 -174.5 46.5zM491 81q28 26 43.5 67.5t15.5 88.5q0 86 -28 181.5t-79.5 160.5t-117.5 65q-36 0 -64 -25.5t-43.5 -68t-15.5 -90.5q0 -94 28 -188.5t79 -155.5t117 -61q37 0 65 26z" />
    <glyph glyph-name="obreve" unicode="&#x14f;" horiz-adv-x="599" 
d="M200.5 622.5q-40.5 28.5 -58.5 73.5l51 29q10 -24 39.5 -38.5t66.5 -14.5t67 14t40 37l50 -27q-17 -45 -57.5 -73.5t-99.5 -28.5q-58 0 -98.5 28.5zM155.5 17q-63.5 36 -97.5 100.5t-34 145.5t34 144.5t96 99t145 35.5t145.5 -36t96.5 -100t34 -146q0 -81 -33.5 -144.5
t-95.5 -99t-144 -35.5q-83 0 -146.5 36zM400 98q21 37 21 96q0 42 -18.5 106t-54 112.5t-83.5 48.5q-44 0 -65.5 -36.5t-21.5 -96.5q0 -45 18.5 -109t54 -111t84.5 -47q44 0 65 37z" />
    <glyph glyph-name="Ohungarumlaut" unicode="&#x150;" horiz-adv-x="764" 
d="M285 898q9 26 23 39t37 13t36.5 -15t13.5 -35q0 -13 -6 -24.5t-17 -26.5l-87 -114l-52 22zM437 898q9 26 22.5 39t36.5 13t36.5 -15t13.5 -35q0 -21 -22 -51l-87 -114l-52 22zM208.5 27.5q-81.5 46.5 -130 130t-48.5 189.5q0 109 43.5 193.5t123 131.5t184.5 47
q94 0 175 -48t129.5 -133t48.5 -193q0 -107 -46 -189.5t-126 -128.5t-179 -46q-93 0 -174.5 46.5zM491 81q28 26 43.5 67.5t15.5 88.5q0 86 -28 181.5t-79.5 160.5t-117.5 65q-36 0 -64 -25.5t-43.5 -68t-15.5 -90.5q0 -94 28 -188.5t79 -155.5t117 -61q37 0 65 26z" />
    <glyph glyph-name="ohungarumlaut" unicode="&#x151;" horiz-adv-x="599" 
d="M200 720q9 26 23 39t37 13t36.5 -15t13.5 -35q0 -21 -22 -51l-87 -114l-52 22zM352 720q9 26 22.5 39t36.5 13t37 -15t14 -35q0 -13 -6 -24.5t-17 -26.5l-87 -114l-52 22zM155.5 17q-63.5 36 -97.5 100.5t-34 145.5t34 144.5t96 99t145 35.5t145.5 -36t96.5 -100t34 -146
q0 -81 -33.5 -144.5t-95.5 -99t-144 -35.5q-83 0 -146.5 36zM400 98q21 37 21 96q0 42 -18.5 106t-54 112.5t-83.5 48.5q-44 0 -65.5 -36.5t-21.5 -96.5q0 -45 18.5 -109t54 -111t84.5 -47q44 0 65 37z" />
    <glyph glyph-name="OE" unicode="&#x152;" horiz-adv-x="1138" 
d="M1073 -19h-14q-15 8 -63.5 13.5t-82.5 5.5h-395q-63 -19 -138 -19q-93 0 -174 46.5t-130 130t-49 189.5q0 109 43.5 194t123 132t184.5 47q68 0 137 -20h546l39 -175l-40 -15q-23 48 -81 81t-146 33q-40 0 -90 -9v-221l159 1q35 0 58 13.5t30 37.5l40 -8l-1 -164l-39 -8
q-7 24 -30 38t-58 14h-159v-232q76 -10 113 -10q78 0 140 38t98 93l41 -19zM230 249q30 -86 86 -139.5t130 -53.5q28 0 58 12t49 32q2 14 2 22v417q-27 48 -74.5 77t-115.5 29q-52 0 -89.5 -31t-56.5 -80.5t-19 -105.5q0 -93 30 -179z" />
    <glyph glyph-name="oe" unicode="&#x153;" horiz-adv-x="950" 
d="M833 131q37 24 57 54l32 -12q-4 -49 -35 -93t-84 -71.5t-120 -27.5q-54 0 -105 24t-89 67q-34 -44 -85 -68t-114 -24q-79 0 -139.5 36.5t-93.5 101t-33 145.5t32.5 144t92 98.5t138.5 35.5q63 0 113.5 -23t84.5 -65q36 43 87 65.5t107 22.5q79 0 135 -36.5t82 -98.5
q14 -34 35 -38l9 -49l-372 -70q33 -142 182 -142q46 0 83 24zM588.5 425q-28.5 -39 -28.5 -92v-13l196 37q-4 45 -29 76t-68 31q-42 0 -70.5 -39zM400.5 98.5q21.5 37.5 21.5 95.5q0 42 -18.5 106t-54 112.5t-83.5 48.5q-45 0 -66.5 -36.5t-21.5 -97.5q0 -45 18.5 -108.5
t54 -110.5t84.5 -47q44 0 65.5 37.5z" />
    <glyph glyph-name="Racute" unicode="&#x154;" horiz-adv-x="779" 
d="M279 773l103 129q17 21 32 30.5t37 9.5q21 0 35 -14t14 -33q0 -21 -11 -36t-31 -27l-140 -90zM664 -18q-61 0 -110.5 27.5t-70.5 108.5q-17 73 -35.5 108t-51.5 49.5t-96 14.5h-42v-164q0 -35 14 -57.5t38 -29.5l-8 -39h-275l-8 39q24 7 37.5 29.5t13.5 57.5v447
q0 36 -13.5 58.5t-37.5 29.5l8 39h388q88 0 156 -24t106 -70t38 -108q0 -70 -43.5 -118.5t-127.5 -70.5v-8q47 -6 74 -25t40.5 -47.5t27.5 -77.5q11 -41 19.5 -61.5t26.5 -32.5t50 -10l4 -44q-66 -21 -122 -21zM258 617v-247h101q86 0 126 33t40 88q0 62 -48 97.5t-129 35.5
q-48 0 -90 -7z" />
    <glyph glyph-name="racute" unicode="&#x155;" horiz-adv-x="495" 
d="M124 595l103 129q17 21 32 30.5t37 9.5q21 0 35 -14t14 -33q0 -21 -11 -36t-31 -27l-140 -90zM457 510.5q32 -31.5 32 -78.5q0 -41 -27 -69.5t-65 -28.5q-37 0 -53 15.5t-29 43.5q-7 18 -14.5 27t-21.5 9q-20 0 -35 -25t-15 -59v-219q0 -35 14.5 -57.5t38.5 -29.5l-9 -39
h-247l-8 39q24 7 37.5 29.5t13.5 57.5v211q0 35 -13.5 58t-37.5 29l8 40q49 7 90 26t90 52h14l5 -81h5q24 38 61.5 59.5t83.5 21.5q50 0 82 -31.5z" />
    <glyph glyph-name="uni0156" unicode="&#x156;" horiz-adv-x="784" 
d="M664 -18q-61 0 -110.5 27.5t-70.5 108.5q-17 73 -35.5 108t-51.5 49t-96 14h-42v-163q0 -35 14 -57.5t38 -29.5l-8 -39h-275l-8 39q24 7 37.5 29.5t13.5 57.5v447q0 36 -13.5 58.5t-37.5 29.5l8 39h388q88 0 156 -24t106 -70t38 -108q0 -71 -44.5 -119.5t-129.5 -70.5v-8
q47 -5 74.5 -24t42 -48t28.5 -77q11 -41 19.5 -61.5t26.5 -32.5t50 -10l4 -44q-66 -21 -122 -21zM258 617v-248h101q86 0 126 33t40 89q0 62 -48 97.5t-129 35.5q-48 0 -90 -7zM469.5 -92q31.5 -35 31.5 -95q0 -79 -47.5 -150t-122.5 -109l-36 52q44 29 70.5 66.5t41.5 86.5
l-3 3q-20 -10 -32 -10q-41 0 -69 26.5t-28 69.5q0 42 33 68.5t79 26.5q51 0 82.5 -35z" />
    <glyph glyph-name="uni0157" unicode="&#x157;" horiz-adv-x="496" 
d="M457 510.5q32 -31.5 32 -78.5q0 -41 -27 -69.5t-65 -28.5q-37 0 -53 15.5t-29 43.5q-7 18 -14.5 27t-21.5 9q-20 0 -35 -25t-15 -59v-219q0 -35 14.5 -57.5t38.5 -29.5l-9 -39h-247l-8 39q24 7 37.5 29.5t13.5 57.5v211q0 35 -13.5 58t-37.5 29l8 40q49 7 90 26t90 52h14
l5 -81h5q24 38 61.5 59.5t83.5 21.5q50 0 82 -31.5zM227 -92q32 -35 32 -95q0 -79 -47.5 -150t-122.5 -109l-36 52q44 29 70.5 66.5t40.5 86.5l-3 3q-15 -10 -31 -10q-41 0 -69.5 27t-28.5 69t33 68.5t80 26.5q50 0 82 -35z" />
    <glyph glyph-name="Rcaron" unicode="&#x158;" horiz-adv-x="779" 
d="M226 882l24 40l140 -58l138 58l25 -40l-163 -143zM664 -18q-61 0 -110.5 27.5t-70.5 108.5q-17 73 -35.5 108t-51.5 49.5t-96 14.5h-42v-164q0 -35 14 -57.5t38 -29.5l-8 -39h-275l-8 39q24 7 37.5 29.5t13.5 57.5v447q0 36 -13.5 58.5t-37.5 29.5l8 39h388q88 0 156 -24
t106 -70t38 -108q0 -70 -43.5 -118.5t-127.5 -70.5v-8q47 -6 74 -25t40.5 -47.5t27.5 -77.5q11 -41 19.5 -61.5t26.5 -32.5t50 -10l4 -44q-66 -21 -122 -21zM258 617v-247h101q86 0 126 33t40 88q0 62 -48 97.5t-129 35.5q-48 0 -90 -7z" />
    <glyph glyph-name="rcaron" unicode="&#x159;" horiz-adv-x="495" 
d="M84 704l24 40l140 -58l138 58l25 -40l-163 -143zM457 510.5q32 -31.5 32 -78.5q0 -41 -27 -69.5t-65 -28.5q-37 0 -53 15.5t-29 43.5q-7 18 -14.5 27t-21.5 9q-20 0 -35 -25t-15 -59v-219q0 -35 14.5 -57.5t38.5 -29.5l-9 -39h-247l-8 39q24 7 37.5 29.5t13.5 57.5v211
q0 35 -13.5 58t-37.5 29l8 40q49 7 90 26t90 52h14l5 -81h5q24 38 61.5 59.5t83.5 21.5q50 0 82 -31.5z" />
    <glyph glyph-name="Sacute" unicode="&#x15a;" horiz-adv-x="673" 
d="M329 902q17 21 32 30.5t37 9.5q21 0 35 -14t14 -33q0 -21 -11 -36t-31 -27l-140 -90l-39 31zM289.5 -14.5q-23.5 4.5 -60.5 14.5q-53 15 -84 15q-30 0 -55 -15h-15l-51 225l46 16q38 -82 108 -138t155 -56q56 0 92 28.5t36 71.5q0 37 -23.5 61.5t-57.5 38.5t-97 34
q-75 24 -122 47t-80 67t-33 114q0 67 35.5 114t95.5 71.5t132 24.5q37 0 66.5 -5t60.5 -14q42 -11 62 -11q27 0 47 11h17l47 -201l-45 -11q-34 75 -96.5 119.5t-137.5 44.5q-50 0 -80 -25t-30 -63q0 -33 23 -54t56.5 -33.5t95.5 -30.5q78 -22 127.5 -44.5t84 -66.5
t34.5 -116t-40 -126t-108.5 -83t-152.5 -29q-29 0 -52.5 4.5z" />
    <glyph glyph-name="sacute" unicode="&#x15b;" horiz-adv-x="551" 
d="M268 724q17 21 32 30.5t36 9.5t35.5 -14t14.5 -33q0 -21 -11 -36t-31 -27l-140 -90l-39 31zM244.5 -13.5q-25.5 5.5 -58.5 15.5q-5 1 -27.5 7.5t-38.5 7.5q-27 0 -46 -17h-13l-43 187l35 11q43 -69 109 -109t127 -40q35 0 56.5 15.5t21.5 43.5q0 33 -39 57t-107 47
q-75 23 -126.5 64.5t-51.5 102.5q0 48 29 85.5t78 57.5t106 20q32 0 56.5 -6t50.5 -17q14 -5 28 -9t25 -4q26 0 45 16h14l34 -167l-41 -12q-36 62 -88 97.5t-99 35.5q-31 0 -48.5 -14.5t-17.5 -36.5q0 -31 32.5 -50.5t95.5 -38.5q88 -28 139 -65.5t51 -104.5
q0 -88 -67 -136.5t-171 -48.5q-25 0 -50.5 5.5z" />
    <glyph glyph-name="Scircumflex" unicode="&#x15c;" horiz-adv-x="673" 
d="M337 920l163 -143l-24 -40l-139 59l-139 -59l-25 40zM289.5 -14.5q-23.5 4.5 -60.5 14.5q-53 15 -84 15q-30 0 -55 -15h-15l-51 225l46 16q38 -82 108 -138t155 -56q56 0 92 28.5t36 71.5q0 37 -23.5 61.5t-57.5 38.5t-97 34q-75 24 -122 47t-80 67t-33 114
q0 67 35.5 114t95.5 71.5t132 24.5q37 0 66.5 -5t60.5 -14q42 -11 62 -11q27 0 47 11h17l47 -201l-45 -11q-34 75 -96.5 119.5t-137.5 44.5q-50 0 -80 -25t-30 -63q0 -33 23 -54t56.5 -33.5t95.5 -30.5q78 -22 127.5 -44.5t84 -66.5t34.5 -116t-40 -126t-108.5 -83
t-152.5 -29q-29 0 -52.5 4.5z" />
    <glyph glyph-name="scircumflex" unicode="&#x15d;" horiz-adv-x="551" 
d="M276 742l163 -143l-24 -40l-139 59l-140 -59l-24 40zM244.5 -13.5q-25.5 5.5 -58.5 15.5q-5 1 -27.5 7.5t-38.5 7.5q-27 0 -46 -17h-13l-43 187l35 11q43 -69 109 -109t127 -40q35 0 56.5 15.5t21.5 43.5q0 33 -39 57t-107 47q-75 23 -126.5 64.5t-51.5 102.5
q0 48 29 85.5t78 57.5t106 20q32 0 56.5 -6t50.5 -17q14 -5 28 -9t25 -4q26 0 45 16h14l34 -167l-41 -12q-36 62 -88 97.5t-99 35.5q-31 0 -48.5 -14.5t-17.5 -36.5q0 -31 32.5 -50.5t95.5 -38.5q88 -28 139 -65.5t51 -104.5q0 -88 -67 -136.5t-171 -48.5q-25 0 -50.5 5.5z
" />
    <glyph glyph-name="Scedilla" unicode="&#x15e;" horiz-adv-x="673" 
d="M610.5 104.5q-32.5 -50.5 -89 -81t-128.5 -39.5l-21 -46q10 4 25 4q36 0 58 -17.5t22 -47.5q0 -29 -19.5 -55t-55 -41.5t-80.5 -15.5q-53 0 -89 23t-36 54q0 15 11 27t26 12q19 0 27.5 -8t17.5 -25q9 -18 19 -27t33 -9q24 0 39 13t15 35q0 14 -9.5 22t-24.5 8
q-19 0 -31 -11l-35 16l38 87q-37 2 -95 18q-52 15 -83 15q-30 0 -55 -15h-15l-51 225l46 16q38 -82 108 -138t155 -56q56 0 92 28.5t36 71.5q0 37 -23.5 61.5t-57.5 38.5t-97 34q-75 24 -122 47t-80 67t-33 114q0 67 35.5 114t95.5 71.5t132 24.5q37 0 66.5 -5t60.5 -14
q42 -11 62 -11q27 0 47 11h17l47 -201l-45 -11q-34 75 -96.5 119.5t-137.5 44.5q-50 0 -80 -25t-30 -63q0 -33 23 -54t56.5 -33.5t95.5 -30.5q78 -22 127.5 -44.5t84 -66.5t34.5 -116q0 -64 -32.5 -114.5z" />
    <glyph glyph-name="scedilla" unicode="&#x15f;" horiz-adv-x="551" 
d="M477.5 38.5q-55.5 -47.5 -146.5 -55.5l-20 -45q10 4 25 4q36 0 57.5 -17.5t21.5 -47.5q0 -29 -19.5 -55t-54.5 -41.5t-80 -15.5q-53 0 -89.5 23t-36.5 54q0 15 11 27t26 12q19 0 28 -8t18 -25q9 -18 19.5 -27t32.5 -9q24 0 39 13t15 35q0 14 -9.5 22t-24.5 8
q-18 0 -32 -11l-34 16l38 88q-23 4 -76 19q-48 14 -66 15q-27 0 -46 -17h-13l-43 187l35 11q43 -69 109 -109t127 -40q35 0 56.5 15.5t21.5 43.5q0 33 -39 57t-107 47q-75 23 -126.5 64.5t-51.5 102.5q0 48 29 85.5t78 57.5t106 20q32 0 56.5 -6t50.5 -17q14 -5 28 -9t25 -4
q26 0 45 16h14l34 -167l-41 -12q-36 62 -88 97.5t-99 35.5q-31 0 -48.5 -14.5t-17.5 -36.5q0 -31 32.5 -50.5t95.5 -38.5q88 -28 139 -65.5t51 -104.5q0 -80 -55.5 -127.5z" />
    <glyph glyph-name="Scaron" unicode="&#x160;" horiz-adv-x="673" 
d="M197 922l140 -58l138 58l25 -40l-163 -143l-164 143zM289.5 -14.5q-23.5 4.5 -60.5 14.5q-53 15 -84 15q-30 0 -55 -15h-15l-51 225l46 16q38 -82 108 -138t155 -56q56 0 92 28.5t36 71.5q0 37 -23.5 61.5t-57.5 38.5t-97 34q-75 24 -122 47t-80 67t-33 114
q0 67 35.5 114t95.5 71.5t132 24.5q37 0 66.5 -5t60.5 -14q42 -11 62 -11q27 0 47 11h17l47 -201l-45 -11q-34 75 -96.5 119.5t-137.5 44.5q-50 0 -80 -25t-30 -63q0 -33 23 -54t56.5 -33.5t95.5 -30.5q78 -22 127.5 -44.5t84 -66.5t34.5 -116t-40 -126t-108.5 -83
t-152.5 -29q-29 0 -52.5 4.5z" />
    <glyph glyph-name="scaron" unicode="&#x161;" horiz-adv-x="551" 
d="M136 744l140 -58l138 58l25 -40l-163 -143l-164 143zM244.5 -13.5q-25.5 5.5 -58.5 15.5q-5 1 -27.5 7.5t-38.5 7.5q-27 0 -46 -17h-13l-43 187l35 11q43 -69 109 -109t127 -40q35 0 56.5 15.5t21.5 43.5q0 33 -39 57t-107 47q-75 23 -126.5 64.5t-51.5 102.5
q0 48 29 85.5t78 57.5t106 20q32 0 56.5 -6t50.5 -17q14 -5 28 -9t25 -4q26 0 45 16h14l34 -167l-41 -12q-36 62 -88 97.5t-99 35.5q-31 0 -48.5 -14.5t-17.5 -36.5q0 -31 32.5 -50.5t95.5 -38.5q88 -28 139 -65.5t51 -104.5q0 -88 -67 -136.5t-171 -48.5q-25 0 -50.5 5.5z
" />
    <glyph glyph-name="uni0162" unicode="&#x162;" horiz-adv-x="724" 
d="M676 486q-33 54 -90 94t-129 44v-498q0 -36 14 -58t38 -29l-8 -39h-96l-29 -62q12 4 25 4q36 0 58 -17.5t22 -47.5q0 -29 -19.5 -55t-55 -41.5t-80.5 -15.5q-53 0 -89 23t-36 54q0 15 11 27t26 12q19 0 28 -8.5t17 -24.5q9 -18 19.5 -27t32.5 -9q25 0 40 13t15 35
q0 14 -10 22t-25 8q-17 0 -31 -11l-35 16l46 105h-109l-8 39q24 7 37.5 29t13.5 58v499q-72 -4 -129 -44t-91 -95l-41 20l62 213h14q15 -8 61.5 -13.5t80.5 -5.5h272q35 0 81 5.5t62 13.5h14l62 -213z" />
    <glyph glyph-name="uni0163" unicode="&#x163;" horiz-adv-x="411" 
d="M264 128q0 -71 55 -71q13 0 30.5 3.5t28.5 8.5l15 -65q-17 -7 -46.5 -13t-58.5 -9l-20 -44q10 4 25 4q36 0 58 -17.5t22 -47.5q0 -29 -19.5 -55t-55 -41.5t-80.5 -15.5q-53 0 -89 23t-36 54q0 15 11 27t26 12q19 0 27.5 -8t17.5 -25q9 -18 19 -27t33 -9q24 0 39 13t15 35
q0 14 -9.5 22t-24.5 8q-19 0 -31 -11l-35 16l39 89q-58 8 -88 44t-30 103v312h-90v55q69 21 120.5 65t82.5 107h49v-147h131v-80h-131v-315z" />
    <glyph glyph-name="Tcaron" unicode="&#x164;" horiz-adv-x="725" 
d="M198 882l24 40l140 -58l139 58l24 -40l-163 -143zM676 486q-33 54 -90 94t-129 44v-498q0 -36 14 -58t38 -29l-8 -39h-275l-8 39q24 7 37.5 29t13.5 58v499q-72 -4 -129 -44t-91 -95l-41 20l62 213h14q15 -8 61.5 -13.5t80.5 -5.5h272q35 0 81 5.5t62 13.5h14l62 -213z
" />
    <glyph glyph-name="tcaron" unicode="&#x165;" horiz-adv-x="674" 
d="M613 684q32 -35 32 -95q0 -78 -47.5 -149t-122.5 -110l-36 52q44 30 70.5 67.5t40.5 85.5l-3 3q-20 -10 -31 -10q-41 0 -69.5 27t-28.5 70q0 42 33 68t80 26q50 0 82 -35zM398 522v-80h-132v-314q0 -71 55 -71q12 0 29.5 3.5t29.5 8.5l16 -65q-24 -9 -63.5 -16t-67.5 -7
q-79 0 -120 36t-41 114v311h-90v56q68 20 120 64t84 107h48v-147h132z" />
    <glyph glyph-name="Tbar" unicode="&#x166;" horiz-adv-x="725" 
d="M676 486q-33 54 -90 94t-129 44v-227h116v-56h-116v-215q0 -35 14 -57.5t38 -29.5l-8 -39h-275l-8 39q24 7 38 29.5t14 57.5v215h-116v56h116v228q-73 -4 -130.5 -44t-91.5 -95l-40 20l62 213h14q15 -8 61 -13.5t82 -5.5h272q34 0 80.5 5.5t61.5 13.5h14l62 -213z" />
    <glyph glyph-name="tbar" unicode="&#x167;" horiz-adv-x="414" 
d="M264 294h130l1 -56h-131v-110q0 -71 55 -71q13 0 30.5 3.5t28.5 8.5l15 -65q-23 -9 -62.5 -16.5t-68.5 -7.5q-160 0 -160 151v107h-90v56h90v149h-90v55q69 20 120.5 64t82.5 107h49v-146h131v-80h-131v-149z" />
    <glyph glyph-name="Utilde" unicode="&#x168;" horiz-adv-x="672" 
d="M361.5 792q-17.5 7 -40.5 20q-18 11 -31 16.5t-26 5.5t-24.5 -9.5t-15.5 -28.5l-52 13q6 62 34 88t65 26q21 0 39 -7t41 -20q36 -21 57 -21q14 0 25.5 9t15.5 28l50 -12q-7 -62 -35 -88.5t-64 -26.5q-21 0 -38.5 7zM183.5 8.5q-70.5 28.5 -113.5 86.5t-43 141q0 17 1 26
l28 311q1 5 1 15q0 29 -12 48t-32 25l8 39h275l8 -39q-24 -7 -39.5 -29.5t-19.5 -58.5l-28 -310q-1 -7 -1 -20q0 -55 24 -97.5t64 -65.5t86 -23q49 0 89.5 23t64 65t23.5 98q0 13 -1 20l-27 309q-4 36 -20 59t-40 29l8 40h164l8 -40q-23 -6 -35 -29t-9 -58l27 -311
q1 -8 1 -25q0 -77 -41 -135.5t-111 -90t-154 -31.5q-83 0 -153.5 28.5z" />
    <glyph glyph-name="utilde" unicode="&#x169;" horiz-adv-x="643" 
d="M224.5 646.5q-11.5 -9.5 -15.5 -28.5l-52 13q7 61 35 87.5t64 26.5q21 0 39.5 -7t41.5 -20q20 -11 32 -16t25 -5q14 0 25 9t15 28l50 -12q-6 -62 -34 -88.5t-65 -26.5q-21 0 -38.5 7t-40.5 20q-17 11 -30 16.5t-26 5.5q-14 0 -25.5 -9.5zM587 68.5q14 -22.5 38 -29.5
l-8 -40q-97 -3 -156 -19h-13l-23 95h-6q-27 -42 -70 -68.5t-105 -26.5q-82 0 -132 54t-49 160v148q0 35 -14 58t-37 29l8 39q109 19 189 74h15v-361q0 -48 26 -74.5t68 -26.5q39 0 67 29.5t28 71.5v161q0 35 -13.5 58t-37.5 29l8 40q107 17 188 73h15v-416q0 -35 14 -57.5z
" />
    <glyph glyph-name="Umacron" unicode="&#x16a;" horiz-adv-x="672" 
d="M490 865v-77h-309v77h309zM183.5 8.5q-70.5 28.5 -113.5 86.5t-43 141q0 17 1 26l28 311q1 5 1 15q0 29 -12 48t-32 25l8 39h275l8 -39q-24 -7 -39.5 -29.5t-19.5 -58.5l-28 -310q-1 -7 -1 -20q0 -55 24 -97.5t64 -65.5t86 -23q49 0 89.5 23t64 65t23.5 98q0 13 -1 20
l-27 309q-4 36 -20 59t-40 29l8 40h164l8 -40q-23 -6 -35 -29t-9 -58l27 -311q1 -8 1 -25q0 -77 -41 -135.5t-111 -90t-154 -31.5q-83 0 -153.5 28.5z" />
    <glyph glyph-name="umacron" unicode="&#x16b;" horiz-adv-x="643" 
d="M166 610v77h309v-77h-309zM587 68.5q14 -22.5 38 -29.5l-8 -40q-97 -3 -156 -19h-13l-23 95h-6q-27 -42 -70 -68.5t-105 -26.5q-82 0 -132 54t-49 160v148q0 35 -14 58t-37 29l8 39q109 19 189 74h15v-361q0 -48 26 -74.5t68 -26.5q39 0 67 29.5t28 71.5v161
q0 35 -13.5 58t-37.5 29l8 40q107 17 188 73h15v-416q0 -35 14 -57.5z" />
    <glyph glyph-name="Ubreve" unicode="&#x16c;" horiz-adv-x="672" 
d="M236 800.5q-40 28.5 -57 73.5l50 29q10 -24 39.5 -38.5t66.5 -14.5t67.5 14t40.5 37l49 -27q-17 -45 -57.5 -73.5t-99.5 -28.5t-99 28.5zM183.5 8.5q-70.5 28.5 -113.5 86.5t-43 141q0 17 1 26l28 311q1 5 1 15q0 29 -12 48t-32 25l8 39h275l8 -39q-24 -7 -39.5 -29.5
t-19.5 -58.5l-28 -310q-1 -7 -1 -20q0 -55 24 -97.5t64 -65.5t86 -23q49 0 89.5 23t64 65t23.5 98q0 13 -1 20l-27 309q-4 36 -20 59t-40 29l8 40h164l8 -40q-23 -6 -35 -29t-9 -58l27 -311q1 -8 1 -25q0 -77 -41 -135.5t-111 -90t-154 -31.5q-83 0 -153.5 28.5z" />
    <glyph glyph-name="ubreve" unicode="&#x16d;" horiz-adv-x="643" 
d="M221.5 622.5q-40.5 28.5 -57.5 73.5l50 29q10 -24 40 -38.5t66 -14.5q38 0 68 14t40 37l50 -27q-18 -45 -58 -73.5t-100 -28.5q-58 0 -98.5 28.5zM587 68.5q14 -22.5 38 -29.5l-8 -40q-97 -3 -156 -19h-13l-23 95h-6q-27 -42 -70 -68.5t-105 -26.5q-82 0 -132 54t-49 160
v148q0 35 -14 58t-37 29l8 39q109 19 189 74h15v-361q0 -48 26 -74.5t68 -26.5q39 0 67 29.5t28 71.5v161q0 35 -13.5 58t-37.5 29l8 40q107 17 188 73h15v-416q0 -35 14 -57.5z" />
    <glyph glyph-name="Uring" unicode="&#x16e;" horiz-adv-x="672" 
d="M260 781.5q-32 31.5 -32 74.5t32 74.5t76 31.5t75.5 -31.5t31.5 -74.5q0 -44 -31.5 -75t-75.5 -31t-76 31.5zM367.5 823q12.5 13 12.5 33q0 18 -12.5 31t-31.5 13t-32 -13t-13 -31q0 -19 13 -32.5t32 -13.5t31.5 13zM183.5 8.5q-70.5 28.5 -113.5 86.5t-43 141q0 17 1 26
l28 311q1 5 1 15q0 29 -12 48t-32 25l8 39h275l8 -39q-24 -7 -39.5 -29.5t-19.5 -58.5l-28 -310q-1 -7 -1 -20q0 -55 24 -97.5t64 -65.5t86 -23q49 0 89.5 23t64 65t23.5 98q0 13 -1 20l-27 309q-4 36 -20 59t-40 29l8 40h164l8 -40q-23 -6 -35 -29t-9 -58l27 -311
q1 -8 1 -25q0 -77 -41 -135.5t-111 -90t-154 -31.5q-83 0 -153.5 28.5z" />
    <glyph glyph-name="uring" unicode="&#x16f;" horiz-adv-x="643" 
d="M245.5 603q-31.5 31 -31.5 75q0 43 31.5 74.5t75.5 31.5t75.5 -31.5t31.5 -74.5q0 -44 -31.5 -75t-75.5 -31t-75.5 31zM289.5 709q-12.5 -13 -12.5 -31q0 -20 12.5 -33t31.5 -13t32 13.5t13 32.5q0 18 -13 31t-32 13t-31.5 -13zM587 68.5q14 -22.5 38 -29.5l-8 -40
q-97 -3 -156 -19h-13l-23 95h-6q-27 -42 -70 -68.5t-105 -26.5q-82 0 -132 54t-49 160v148q0 35 -14 58t-37 29l8 39q109 19 189 74h15v-361q0 -48 26 -74.5t68 -26.5q39 0 67 29.5t28 71.5v161q0 35 -13.5 58t-37.5 29l8 40q107 17 188 73h15v-416q0 -35 14 -57.5z" />
    <glyph glyph-name="Uhungarumlaut" unicode="&#x170;" horiz-adv-x="672" 
d="M308 898q9 26 22.5 39t36.5 13t36.5 -15t13.5 -35q0 -21 -22 -51l-87 -114l-52 22zM459 898q9 26 22.5 39t36.5 13t37 -15t14 -35q0 -13 -6 -24.5t-17 -26.5l-87 -114l-52 22zM183.5 8.5q-70.5 28.5 -113.5 86.5t-43 141q0 17 1 26l28 311q1 5 1 15q0 29 -12 48t-32 25
l8 39h275l8 -39q-24 -7 -39.5 -29.5t-19.5 -58.5l-28 -310q-1 -7 -1 -20q0 -55 24 -97.5t64 -65.5t86 -23q49 0 89.5 23t64 65t23.5 98q0 13 -1 20l-27 309q-4 36 -20 59t-40 29l8 40h164l8 -40q-23 -6 -35 -29t-9 -58l27 -311q1 -8 1 -25q0 -77 -41 -135.5t-111 -90
t-154 -31.5q-83 0 -153.5 28.5z" />
    <glyph glyph-name="uhungarumlaut" unicode="&#x171;" horiz-adv-x="643" 
d="M238 579l52 141q9 26 23 39t37 13t36.5 -15t13.5 -35q0 -13 -6 -24.5t-17 -26.5l-87 -114zM442 720q9 26 22.5 39t36.5 13t36.5 -15t13.5 -35q0 -21 -22 -51l-87 -114l-52 22zM587 68.5q14 -22.5 38 -29.5l-8 -40q-97 -3 -156 -19h-13l-23 95h-6q-27 -42 -70 -68.5
t-105 -26.5q-82 0 -132 54t-49 160v148q0 35 -14 58t-37 29l8 39q109 19 189 74h15v-361q0 -48 26 -74.5t68 -26.5q39 0 67 29.5t28 71.5v161q0 35 -13.5 58t-37.5 29l8 40q107 17 188 73h15v-416q0 -35 14 -57.5z" />
    <glyph glyph-name="Uogonek" unicode="&#x172;" horiz-adv-x="672" 
d="M643 237q0 -99 -65.5 -165.5t-169.5 -85.5q-44 -39 -44 -88q0 -21 14 -35t34 -14q37 0 59 38l46 -24q-24 -43 -56 -63t-78 -20q-58 0 -91.5 30.5t-33.5 76.5q0 52 38 95q-74 7 -135 37.5t-97.5 85t-36.5 130.5q0 18 1 27l28 311q1 5 1 15q0 29 -12 48t-32 25l8 39h275
l8 -39q-24 -7 -39.5 -29.5t-19.5 -58.5l-28 -310q-1 -7 -1 -20q0 -55 24 -97.5t64 -65.5t86 -23q49 0 89.5 23t64 65t23.5 98q0 13 -1 20l-27 309q-4 36 -20 59t-40 29l8 40h164l8 -40q-23 -6 -35 -29t-9 -58l27 -311q1 -8 1 -25z" />
    <glyph glyph-name="uogonek" unicode="&#x173;" horiz-adv-x="643" 
d="M581 -200q-32 -20 -78 -20q-57 0 -90.5 30.5t-33.5 76.5q0 35 16.5 65t46.5 52l-17 71h-6q-27 -42 -70 -68.5t-105 -26.5q-82 0 -132 54t-49 160v148q0 35 -14 58t-37 29l8 39q109 19 189 74h15v-361q0 -48 26 -74.5t68 -26.5q39 0 67 29.5t28 71.5v161q0 35 -13.5 58
t-37.5 29l8 40q107 17 188 73h15v-416q0 -35 14 -57.5t38 -29.5l-8 -40q-38 -1 -79 -5q-53 -42 -53 -96q0 -21 13.5 -35t33.5 -14q21 0 35 10.5t25 27.5l46 -24q-25 -43 -57 -63z" />
    <glyph glyph-name="Wcircumflex" unicode="&#x174;" horiz-adv-x="1040" 
d="M356 777l164 143l163 -143l-24 -40l-139 59l-139 -59zM1001.5 631.5q-20.5 -22.5 -31.5 -57.5l-155 -523q8 -14 20 -30l-7 -20q-74 0 -127.5 -7.5t-67.5 -12.5h-16l-98 383h-6l-99 -309q7 -15 23 -35l-7 -20l-27 1q-89 0 -167 -20h-9l-161 593q-10 35 -29 57.5t-44 29.5
l10 39h288l6 -39q-15 -5 -24 -19t-9 -34q0 -18 5 -34l106 -394h5l103 321l-12 49q-2 8 -7 30.5t-16 41t-32 38.5l12 40q52 -2 105.5 3.5t90.5 19.5h8l139 -543h7l117 394q6 21 6 37q0 20 -8 32.5t-23 17.5l7 39h161l9 -39q-25 -7 -45.5 -29.5z" />
    <glyph glyph-name="wcircumflex" unicode="&#x175;" horiz-adv-x="791" 
d="M224 599l164 143l163 -143l-24 -40l-139 59l-139 -59zM756 516q24 -26 24 -67q0 -27 -11 -59t-35 -89l-131 -301h-126l-76 228h-3l-78 -228h-148l-98 337q-11 37 -31.5 59t-47.5 28l8 40q52 8 98 28t76 50h14l103 -361h5l114 341h74l115 -341h5l65 153q6 17 6 24
q0 9 -6 16t-20 18q-21 16 -32.5 31.5t-11.5 43.5q0 34 22 54.5t60 20.5q42 0 66 -26z" />
    <glyph glyph-name="Ycircumflex" unicode="&#x176;" horiz-adv-x="677" 
d="M338 920l163 -143l-23 -40l-140 59l-139 -59l-24 40zM230 68q14 22 14 58v198l-156 249q-46 75 -95 88l7 39h303l8 -39q-11 -4 -17.5 -13.5t-6.5 -23.5q0 -23 17 -51l97 -152h7l97 152q18 30 18 51q0 14 -7 23.5t-19 13.5l8 39h171l8 -39q-26 -7 -49 -28.5t-46 -59.5
l-157 -250v-197q0 -36 13.5 -58t37.5 -29l-8 -39h-275l-7 39q23 7 37 29z" />
    <glyph glyph-name="ycircumflex" unicode="&#x177;" horiz-adv-x="536" 
d="M105 599l164 143l163 -143l-24 -40l-139 59l-140 -59zM512.5 513.5q25.5 -28.5 25.5 -68.5q0 -72 -44 -194q-71 -216 -180 -347q-51 -66 -99 -97t-106 -31q-43 0 -72.5 24.5t-29.5 62.5q0 35 23.5 57.5t57.5 22.5q26 0 40.5 -10.5t30.5 -29.5q5 -7 11 -12.5t12 -5.5
q31 0 77 65q19 24 35 50h-35l-157 337q-17 36 -46.5 58t-60.5 29l8 40q53 8 101 28.5t70 49.5h14l183 -386h6q27 62 40 115q12 33 16 52.5t3 35.5q-1 11 -7.5 18t-22.5 20q-22 16 -33.5 30.5t-11.5 39.5q0 34 24 54.5t61 20.5q41 0 66.5 -28.5z" />
    <glyph glyph-name="Ydieresis" unicode="&#x178;" horiz-adv-x="677" 
d="M175.5 785.5q-21.5 21.5 -21.5 51.5t21.5 52.5t57.5 22.5t58 -22.5t22 -52.5q0 -29 -21.5 -51t-58.5 -22q-36 0 -57.5 21.5zM384.5 785.5q-21.5 21.5 -21.5 51.5t21.5 52.5t57.5 22.5t58 -22.5t22 -52.5q0 -29 -21.5 -51t-58.5 -22q-36 0 -57.5 21.5zM230 68q14 22 14 58
v198l-156 249q-46 75 -95 88l7 39h303l8 -39q-11 -4 -17.5 -13.5t-6.5 -23.5q0 -23 17 -51l97 -152h7l97 152q18 30 18 51q0 14 -7 23.5t-19 13.5l8 39h171l8 -39q-26 -7 -49 -28.5t-46 -59.5l-157 -250v-197q0 -36 13.5 -58t37.5 -29l-8 -39h-275l-7 39q23 7 37 29z" />
    <glyph glyph-name="Zacute" unicode="&#x179;" horiz-adv-x="659" 
d="M361 902q17 20 32 30t37 10q21 0 35 -14t14 -33q0 -21 -11 -36t-31 -27l-140 -90l-38 31zM508.5 -6q-46.5 6 -80.5 6h-396l-8 44l364 581h-78q-78 0 -140.5 -42t-99.5 -102l-41 20l64 218h15q14 -8 60.5 -13.5t81.5 -5.5h363l8 -44l-364 -582h111q78 0 141 47t101 114
l42 -20l-68 -235h-14q-15 8 -61.5 14z" />
    <glyph glyph-name="zacute" unicode="&#x17a;" horiz-adv-x="543" 
d="M327 724q17 21 32 30.5t37 9.5q21 0 35 -14t14 -33q0 -21 -11 -36t-31 -27l-140 -90l-39 31zM399 -5.5q-47 5.5 -80 5.5h-294l-8 46l285 407v6h-65q-106 0 -156 -103l-36 15l35 151h426l8 -46l-281 -401v-5h69q67 0 120 38.5t84 93.5l35 -18l-65 -203h-15q-15 8 -62 13.5
z" />
    <glyph glyph-name="Zdotaccent" unicode="&#x17b;" horiz-adv-x="659" 
d="M271 803q-21 22 -21 51q0 30 21 53t57 23q37 0 58.5 -22.5t21.5 -53.5q0 -29 -21.5 -51t-58.5 -22q-36 0 -57 22zM508.5 -6q-46.5 6 -80.5 6h-396l-8 44l364 581h-78q-78 0 -140.5 -42t-99.5 -102l-41 20l64 218h15q14 -8 60.5 -13.5t81.5 -5.5h363l8 -44l-364 -582h111
q78 0 141 47t101 114l42 -20l-68 -235h-14q-15 8 -61.5 14z" />
    <glyph glyph-name="zdotaccent" unicode="&#x17c;" horiz-adv-x="543" 
d="M213.5 625q-21.5 22 -21.5 51q0 31 21.5 53.5t57.5 22.5q37 0 58.5 -22.5t21.5 -53.5q0 -29 -21.5 -51t-58.5 -22q-36 0 -57.5 22zM399 -5.5q-47 5.5 -80 5.5h-294l-8 46l285 407v6h-65q-106 0 -156 -103l-36 15l35 151h426l8 -46l-281 -401v-5h69q67 0 120 38.5t84 93.5
l35 -18l-65 -203h-15q-15 8 -62 13.5z" />
    <glyph glyph-name="Zcaron" unicode="&#x17d;" horiz-adv-x="659" 
d="M189 922l140 -58l139 58l24 -40l-163 -143l-164 143zM508.5 -6q-46.5 6 -80.5 6h-396l-8 44l364 581h-78q-78 0 -140.5 -42t-99.5 -102l-41 20l64 218h15q14 -8 60.5 -13.5t81.5 -5.5h363l8 -44l-364 -582h111q78 0 141 47t101 114l42 -20l-68 -235h-14q-15 8 -61.5 14z
" />
    <glyph glyph-name="zcaron" unicode="&#x17e;" horiz-adv-x="543" 
d="M132 744l140 -58l138 58l25 -40l-163 -143l-164 143zM399 -5.5q-47 5.5 -80 5.5h-294l-8 46l285 407v6h-65q-106 0 -156 -103l-36 15l35 151h426l8 -46l-281 -401v-5h69q67 0 120 38.5t84 93.5l35 -18l-65 -203h-15q-15 8 -62 13.5z" />
    <glyph glyph-name="longs" unicode="&#x17f;" horiz-adv-x="370" 
d="M351 775q34 -16 54 -43.5t20 -60.5q0 -31 -17.5 -51t-47.5 -20q-34 0 -47.5 16t-22.5 47q-7 24 -15.5 36t-27.5 12q-17 0 -25.5 -12t-8.5 -32q0 -15 7 -33t22 -47q17 -33 25.5 -56t8.5 -43v-362q0 -36 13.5 -58.5t37.5 -28.5l-8 -39h-247l-8 39q24 6 37.5 28.5t13.5 58.5
v317h-97v79h95q-2 15 -8 43q-10 42 -10 64q0 44 21.5 81t62 59t97.5 22q41 0 75 -16z" />
    <glyph glyph-name="florin" unicode="&#x192;" horiz-adv-x="445" 
d="M425 698.5q37 -20.5 37 -55.5q0 -28 -16.5 -44t-43.5 -16q-28 0 -40.5 9.5t-21.5 27.5q-6 12 -11.5 17.5t-16.5 5.5q-19 0 -31 -24.5t-18 -94.5l-6 -60h120v-80h-127l-20 -211q-11 -148 -60 -219.5t-161 -71.5q-70 0 -109.5 24t-39.5 58q0 24 15.5 40t43.5 16q25 0 36 -9
t20 -27q6 -13 12 -19t18 -6q21 0 33 25.5t18 96.5l30 303h-100v80h108l5 46q10 104 67 156.5t156 52.5q66 0 103 -20.5z" />
    <glyph glyph-name="Aringacute" unicode="&#x1fa;" horiz-adv-x="716" 
d="M282.5 781q-31.5 31 -31.5 75q0 30 16 55t42 39l90 113q17 20 32 29.5t36 9.5t35.5 -13.5t14.5 -33.5q0 -21 -11 -36t-31 -27l-67 -43q26 -14 41.5 -39t15.5 -54q0 -44 -31.5 -75t-75.5 -31t-75.5 31zM390 823.5q13 13.5 13 32.5q0 18 -13 31t-32 13t-31.5 -13t-12.5 -31
q0 -20 12.5 -33t31.5 -13t32 13.5zM674.5 68q22.5 -22 48.5 -29l-8 -39h-286l-8 39q27 10 27 41q0 18 -11 46l-14 36h-255l-14 -36q-11 -27 -11 -45q0 -32 27 -42l-8 -39h-161l-8 39q26 7 49 29.5t37 57.5l178 443q-18 33 -57 63l5 40q50 2 99.5 14.5t82.5 35.5h8l242 -596
q15 -36 37.5 -58zM297 474h-4l-93 -233h191z" />
    <glyph glyph-name="aringacute" unicode="&#x1fb;" horiz-adv-x="577" 
d="M211 603.5q-32 31.5 -32 74.5q0 28 15 52.5t39 38.5l82 103q16 20 31.5 29.5t36.5 9.5t35 -13.5t14 -32.5q0 -21 -10.5 -36t-30.5 -28l-50 -32q24 -14 38.5 -38.5t14.5 -52.5q0 -44 -31.5 -75t-75.5 -31t-76 31.5zM319 645.5q13 13.5 13 32.5q0 18 -13 31t-32 13
t-31.5 -13t-12.5 -31q0 -20 12.5 -33t31.5 -13t32 13.5zM552 -9.5q-32 -9.5 -63 -9.5q-44 0 -79.5 18.5t-50.5 66.5h-6q-23 -45 -67.5 -65t-93.5 -20q-73 0 -121.5 38.5t-48.5 103.5q0 66 42 105t102.5 58.5t152.5 36.5l-12 80q-4 30 -20.5 46.5t-39.5 16.5
q-20 0 -34.5 -11.5t-14.5 -30.5q0 -6 1 -9q2 -12 2 -16q0 -29 -21.5 -47t-52.5 -18q-34 0 -53.5 21t-19.5 57q0 33 22.5 62.5t69.5 48t116 18.5q89 0 149 -49t73 -148l26 -208q5 -40 19 -62.5t37 -22.5q13 0 26 6l14 -35q-22 -22 -54 -31.5zM318.5 103.5
q24.5 28.5 23.5 63.5l-16 106q-140 -31 -140 -119q0 -37 22 -58t56 -21q30 0 54.5 28.5z" />
    <glyph glyph-name="uni0218" unicode="&#x218;" horiz-adv-x="668" 
d="M524.5 401.5q49.5 -22.5 84 -66.5t34.5 -116t-40 -126t-108.5 -83t-152.5 -29q-29 0 -52.5 4.5t-60.5 14.5q-53 15 -84 15q-30 0 -55 -15h-15l-51 225l46 16q38 -82 108 -138t155 -56q56 0 92 28.5t36 71.5q0 37 -23.5 61.5t-57.5 38.5t-97 34q-75 24 -122 47t-80 67
t-33 114q0 67 35.5 114t95.5 71.5t132 24.5q37 0 66.5 -5t60.5 -14q42 -11 62 -11q27 0 47 11h17l47 -201l-45 -11q-34 75 -96.5 119.5t-137.5 44.5q-50 0 -80 -25t-30 -63q0 -33 23 -54t56.5 -33.5t95.5 -30.5q78 -22 127.5 -44.5zM443.5 -92q31.5 -35 31.5 -95
q0 -79 -47.5 -150t-122.5 -109l-36 52q44 29 70.5 66.5t41.5 86.5l-3 3q-20 -10 -32 -10q-41 0 -69 26.5t-28 69.5q0 42 33 68.5t79 26.5q51 0 82.5 -35z" />
    <glyph glyph-name="uni0219" unicode="&#x219;" horiz-adv-x="550" 
d="M482 270.5q51 -37.5 51 -104.5q0 -88 -67 -136.5t-171 -48.5q-25 0 -50.5 5.5t-58.5 15.5q-5 1 -27.5 7.5t-38.5 7.5q-27 0 -46 -17h-13l-43 187l35 11q43 -69 109 -109t127 -40q35 0 56.5 15.5t21.5 43.5q0 33 -39 57t-107 47q-75 23 -126.5 64.5t-51.5 102.5
q0 48 29 85.5t78 57.5t106 20q32 0 56.5 -6t50.5 -17q14 -5 28 -9t25 -4q26 0 45 16h14l34 -167l-41 -12q-36 62 -88 97.5t-99 35.5q-31 0 -48.5 -14.5t-17.5 -36.5q0 -31 32.5 -50.5t95.5 -38.5q88 -28 139 -65.5zM371 -92q32 -35 32 -95q0 -79 -47.5 -150t-122.5 -109
l-36 52q44 29 70.5 66.5t40.5 86.5l-3 3q-15 -10 -31 -10q-41 0 -69.5 27t-28.5 69t33 68.5t80 26.5q50 0 82 -35z" />
    <glyph glyph-name="uni021A" unicode="&#x21a;" horiz-adv-x="725" 
d="M676 486q-33 54 -90 94t-129 44v-498q0 -36 14 -58t38 -29l-8 -39h-275l-8 39q24 7 37.5 29t13.5 58v499q-72 -4 -129 -44t-91 -95l-41 20l62 213h14q15 -8 61.5 -13.5t80.5 -5.5h272q35 0 81 5.5t62 13.5h14l62 -213zM442.5 -92q31.5 -35 31.5 -95q0 -79 -47.5 -150
t-122.5 -109l-36 52q44 29 70.5 66.5t41.5 86.5l-3 3q-20 -10 -32 -10q-41 0 -69 26.5t-28 69.5q0 42 33 68.5t79 26.5q51 0 82.5 -35z" />
    <glyph glyph-name="uni021B" unicode="&#x21b;" horiz-adv-x="414" 
d="M264 128q0 -71 55 -71q12 0 29.5 3.5t29.5 8.5l15 -65q-23 -9 -62.5 -16t-68.5 -7q-79 0 -119.5 35.5t-40.5 114.5v311h-90v56q68 20 120 64t83 107h49v-147h131v-80h-131v-314zM324.5 -92q31.5 -35 31.5 -95q0 -79 -47 -150t-123 -109l-36 52q45 29 71.5 66.5t40.5 86.5
l-3 3q-15 -10 -31 -10q-41 0 -69.5 27t-28.5 69t33 68.5t80 26.5q50 0 81.5 -35z" />
    <glyph glyph-name="uni0237" unicode="&#x237;" horiz-adv-x="250" 
d="M-94 -192.5q-41 31.5 -41 80.5q0 28 20 48.5t51 20.5q28 0 42 -10.5t18.5 -25t7.5 -38.5q3 -27 10 -40.5t28 -13.5q18 0 28 21.5t10 50.5t-15 76q-9 29 -13.5 52.5t-4.5 50.5v263q0 35 -13.5 57.5t-37.5 29.5l8 39q105 17 189 73h14l1 -571q0 -88 -47.5 -141.5
t-142.5 -53.5q-71 0 -112 31.5z" />
    <glyph glyph-name="uni02B0" unicode="&#x2b0;" horiz-adv-x="298" 
d="M290 434l-5 -18h-111l-4 18q19 5 19 31l-1 9l-11 109q-2 17 -11.5 26.5t-21.5 9.5q-16 0 -27 -10.5t-11 -27.5v-107q0 -34 23 -40l-4 -18h-112l-4 18q23 7 23 40v195q0 32 -23 39l4 18q50 8 93 35l5 -3q-5 -24 -5 -74v-53h3q9 11 24 18t32 7q39 0 62 -23t27 -71l8 -88
q3 -33 28 -40z" />
    <glyph glyph-name="circumflex" unicode="&#x2c6;" horiz-adv-x="506" 
d="M253 742l163 -143l-23 -40l-140 59l-139 -59l-24 40z" />
    <glyph glyph-name="caron" unicode="&#x2c7;" horiz-adv-x="506" 
d="M113 744l140 -58l139 58l24 -40l-163 -143l-163 143z" />
    <glyph glyph-name="uni02C9" unicode="&#x2c9;" horiz-adv-x="512" 
d="M411 687v-77h-309v77h309z" />
    <glyph glyph-name="breve" unicode="&#x2d8;" horiz-adv-x="501" 
d="M151 622.5q-40 28.5 -57 73.5l50 29q10 -24 39.5 -38.5t66.5 -14.5t67.5 14t40.5 37l49 -27q-17 -45 -57.5 -73.5t-99.5 -28.5t-99 28.5z" />
    <glyph glyph-name="dotaccent" unicode="&#x2d9;" horiz-adv-x="469" 
d="M176.5 625q-21.5 22 -21.5 51q0 31 21.5 53.5t57.5 22.5q37 0 58.5 -22.5t21.5 -53.5q0 -29 -21.5 -51t-58.5 -22q-36 0 -57.5 22z" />
    <glyph glyph-name="ring" unicode="&#x2da;" horiz-adv-x="495" 
d="M171.5 603q-31.5 31 -31.5 75q0 43 31.5 74.5t76.5 31.5q43 0 74.5 -31.5t31.5 -74.5t-31 -74.5t-75 -31.5q-45 0 -76.5 31zM279.5 645q12.5 13 12.5 33q0 18 -12.5 31t-31.5 13t-32 -13t-13 -31q0 -20 13 -33t32 -13t31.5 13z" />
    <glyph glyph-name="ogonek" unicode="&#x2db;" horiz-adv-x="507" 
d="M219.5 -189.5q-33.5 30.5 -33.5 76.5q0 51 34 90.5t93 61.5l41 -39q-62 -42 -62 -102q0 -21 14 -35t34 -14q37 0 59 38l46 -24q-24 -43 -56 -63t-78 -20q-58 0 -91.5 30.5z" />
    <glyph glyph-name="tilde" unicode="&#x2dc;" horiz-adv-x="514" 
d="M282 614.5q-18 7.5 -40 20.5q-18 10 -30.5 15.5t-25.5 5.5q-14 0 -25 -9.5t-15 -28.5l-52 13q6 62 34 88t65 26q21 0 39 -7t41 -20q36 -21 57 -21q14 0 25.5 9t15.5 28l50 -12q-7 -62 -35 -88.5t-64 -26.5q-22 0 -40 7.5z" />
    <glyph glyph-name="hungarumlaut" unicode="&#x2dd;" horiz-adv-x="477" 
d="M169 720q9 26 23 39t37 13t36.5 -15t13.5 -35q0 -21 -22 -51l-87 -114l-52 22zM321 720q9 26 22.5 39t36.5 13t37 -15t14 -35q0 -13 -6 -24.5t-17 -26.5l-87 -114l-52 22z" />
    <glyph glyph-name="uni0394.001" unicode="&#x394;" horiz-adv-x="724" 
d="M432 700l271 -700h-682l270 700h141zM295 511l-171 -440h342z" />
    <glyph glyph-name="uni03A9.001" unicode="&#x3a9;" horiz-adv-x="830" 
d="M67 232q18 -37 55.5 -64t102.5 -27h62v7q-101 50 -170 125t-69 172q0 84 44 145.5t126.5 95t196.5 33.5t196.5 -33.5t126.5 -95t44 -145.5q0 -97 -69 -172t-171 -125l1 -7h62q65 0 102.5 27t55.5 64l41 -20l-69 -235h-15q-15 11 -47 17t-65 6h-162v170q72 48 105 109.5
t33 154.5q0 105 -37.5 162t-131.5 57t-131.5 -57t-37.5 -162q0 -93 33 -154.5t104 -109.5l1 -170h-163q-33 0 -64.5 -6t-46.5 -17h-15l-69 235z" />
    <glyph glyph-name="uni03BC" unicode="&#x3bc;" horiz-adv-x="653" 
d="M592 -8.5q-35 -10.5 -63 -10.5q-55 0 -86.5 18.5t-37.5 64.5h-3q-60 -83 -166 -83q-20 0 -40 3q29 -42 43 -68t14 -51q0 -45 -27.5 -68t-70.5 -23q-41 0 -69 27t-28 73v311v6v284h160v-296q0 -48 25 -73t67 -25q39 0 66 29.5t27 71.5v293h160v-363q0 -43 32 -43
q17 0 34 9l16 -61q-18 -15 -53 -25.5z" />
    <glyph glyph-name="pi" unicode="&#x3c0;" horiz-adv-x="630" 
d="M591.5 387.5q-19.5 -37.5 -74.5 -40.5l1 -244q0 -40 30 -40q16 0 31 8l15 -58q-17 -14 -49.5 -23t-58.5 -9q-58 0 -87 23t-29 80v246h-87v-170q1 -80 -34.5 -129.5t-110.5 -49.5q-50 0 -83.5 23t-33.5 65q0 25 21 44.5t48 19.5q25 0 37 -12.5t21 -34.5q7 -15 12 -21.5
t14 -6.5q16 0 26 15.5t10 40.5v216h-27q-30 0 -46 -17t-16 -45h-55q0 85 46 146t153 61h353v-6q-7 -44 -26.5 -81.5z" />
    <glyph glyph-name="Wgrave" unicode="&#x1e80;" horiz-adv-x="1040" 
d="M401 859q-11 15 -11 36q0 19 14.5 33t35.5 14t36 -9.5t32 -30.5l103 -129l-39 -31l-140 90q-20 12 -31 27zM1001.5 631.5q-20.5 -22.5 -31.5 -57.5l-155 -523q8 -14 20 -30l-7 -20q-74 0 -127.5 -7.5t-67.5 -12.5h-16l-98 383h-6l-99 -309q7 -15 23 -35l-7 -20l-27 1
q-89 0 -167 -20h-9l-161 593q-10 35 -29 57.5t-44 29.5l10 39h288l6 -39q-15 -5 -24 -19t-9 -34q0 -18 5 -34l106 -394h5l103 321l-12 49q-2 8 -7 30.5t-16 41t-32 38.5l12 40q52 -2 105.5 3.5t90.5 19.5h8l139 -543h7l117 394q6 21 6 37q0 20 -8 32.5t-23 17.5l7 39h161
l9 -39q-25 -7 -45.5 -29.5z" />
    <glyph glyph-name="wgrave" unicode="&#x1e81;" horiz-adv-x="791" 
d="M282 681q-11 15 -11 36q0 19 14.5 33t35.5 14t36 -9.5t32 -30.5l103 -129l-39 -31l-140 90q-20 12 -31 27zM756 516q24 -26 24 -67q0 -27 -11 -59t-35 -89l-131 -301h-126l-76 228h-3l-78 -228h-148l-98 337q-11 37 -31.5 59t-47.5 28l8 40q52 8 98 28t76 50h14l103 -361
h5l114 341h74l115 -341h5l65 153q6 17 6 24q0 9 -6 16t-20 18q-21 16 -32.5 31.5t-11.5 43.5q0 34 22 54.5t60 20.5q42 0 66 -26z" />
    <glyph glyph-name="Wacute" unicode="&#x1e82;" horiz-adv-x="1040" 
d="M467 773l103 129q17 21 32 30.5t37 9.5q21 0 35 -14t14 -33q0 -21 -11 -36t-31 -27l-140 -90zM1001.5 631.5q-20.5 -22.5 -31.5 -57.5l-155 -523q8 -14 20 -30l-7 -20q-74 0 -127.5 -7.5t-67.5 -12.5h-16l-98 383h-6l-99 -309q7 -15 23 -35l-7 -20l-27 1q-89 0 -167 -20
h-9l-161 593q-10 35 -29 57.5t-44 29.5l10 39h288l6 -39q-15 -5 -24 -19t-9 -34q0 -18 5 -34l106 -394h5l103 321l-12 49q-2 8 -7 30.5t-16 41t-32 38.5l12 40q52 -2 105.5 3.5t90.5 19.5h8l139 -543h7l117 394q6 21 6 37q0 20 -8 32.5t-23 17.5l7 39h161l9 -39
q-25 -7 -45.5 -29.5z" />
    <glyph glyph-name="wacute" unicode="&#x1e83;" horiz-adv-x="791" 
d="M374 596l102 128q17 20 32 30t37 10q21 0 35 -14t14 -33q0 -21 -11 -36t-31 -27l-140 -90zM756 516q24 -26 24 -67q0 -27 -11 -59t-35 -89l-131 -301h-126l-76 228h-3l-78 -228h-148l-98 337q-11 37 -31.5 59t-47.5 28l8 40q52 8 98 28t76 50h14l103 -361h5l114 341h74
l115 -341h5l65 153q6 17 6 24q0 9 -6 16t-20 18q-21 16 -32.5 31.5t-11.5 43.5q0 34 22 54.5t60 20.5q42 0 66 -26z" />
    <glyph glyph-name="Wdieresis" unicode="&#x1e84;" horiz-adv-x="1040" 
d="M357 785.5q-21 21.5 -21 51.5q0 31 21 53t58 22q36 0 58 -22.5t22 -52.5q0 -29 -21.5 -51t-58.5 -22t-58 21.5zM566.5 785.5q-21.5 21.5 -21.5 51.5t21.5 52.5t57.5 22.5t57.5 -22.5t21.5 -52.5t-21.5 -51.5t-57.5 -21.5t-57.5 21.5zM1001.5 631.5
q-20.5 -22.5 -31.5 -57.5l-155 -523q8 -14 20 -30l-7 -20q-74 0 -127.5 -7.5t-67.5 -12.5h-16l-98 383h-6l-99 -309q7 -15 23 -35l-7 -20l-27 1q-89 0 -167 -20h-9l-161 593q-10 35 -29 57.5t-44 29.5l10 39h288l6 -39q-15 -5 -24 -19t-9 -34q0 -18 5 -34l106 -394h5
l103 321l-12 49q-2 8 -7 30.5t-16 41t-32 38.5l12 40q52 -2 105.5 3.5t90.5 19.5h8l139 -543h7l117 394q6 21 6 37q0 20 -8 32.5t-23 17.5l7 39h161l9 -39q-25 -7 -45.5 -29.5z" />
    <glyph glyph-name="wdieresis" unicode="&#x1e85;" horiz-adv-x="791" 
d="M228.5 607.5q-21.5 21.5 -21.5 51.5t21.5 52.5t57.5 22.5t58 -22.5t22 -52.5q0 -29 -21.5 -51t-58.5 -22q-36 0 -57.5 21.5zM437.5 607.5q-21.5 21.5 -21.5 51.5t21.5 52.5t57.5 22.5t58 -22.5t22 -52.5q0 -29 -21.5 -51t-58.5 -22q-36 0 -57.5 21.5zM756 516
q24 -26 24 -67q0 -27 -11 -59t-35 -89l-131 -301h-126l-76 228h-3l-78 -228h-148l-98 337q-11 37 -31.5 59t-47.5 28l8 40q52 8 98 28t76 50h14l103 -361h5l114 341h74l115 -341h5l65 153q6 17 6 24q0 9 -6 16t-20 18q-21 16 -32.5 31.5t-11.5 43.5q0 34 22 54.5t60 20.5
q42 0 66 -26z" />
    <glyph glyph-name="endash" unicode="&#x2013;" horiz-adv-x="377" 
d="M366 338v-120h-356v120h356z" />
    <glyph glyph-name="emdash" unicode="&#x2014;" horiz-adv-x="459" 
d="M449 338v-120h-439v120h439z" />
    <glyph glyph-name="quoteleft" unicode="&#x2018;" horiz-adv-x="284" 
d="M225.5 505q28.5 -27 28.5 -69t-33 -68.5t-80 -26.5q-50 0 -82 35t-32 95q0 78 47.5 149t122.5 110l36 -52q-44 -29 -70.5 -66.5t-40.5 -86.5l3 -3q18 10 31 10q41 0 69.5 -27z" />
    <glyph glyph-name="quoteright" unicode="&#x2019;" horiz-adv-x="284" 
d="M225.5 684q31.5 -35 31.5 -95q0 -78 -47.5 -149t-122.5 -110l-36 52q45 30 71.5 67t40.5 86l-3 3q-20 -10 -32 -10q-40 0 -68.5 27.5t-28.5 69.5t33 68t80 26q50 0 81.5 -35z" />
    <glyph glyph-name="quotesinglbase" unicode="&#x201a;" horiz-adv-x="284" 
d="M225.5 137q31.5 -35 31.5 -95q0 -79 -47.5 -150t-122.5 -109l-36 51q45 30 71.5 67t40.5 86l-3 4q-17 -10 -32 -10q-40 0 -68.5 27t-28.5 69t33 68.5t80 26.5q50 0 81.5 -35z" />
    <glyph glyph-name="quotedblleft" unicode="&#x201c;" horiz-adv-x="542" 
d="M225.5 505q28.5 -27 28.5 -69t-33 -68.5t-80 -26.5q-50 0 -82 35t-32 95q0 78 47.5 149t122.5 110l36 -52q-44 -29 -70.5 -66.5t-40.5 -86.5l3 -3q18 10 31 10q41 0 69.5 -27zM482.5 505q28.5 -27 28.5 -69t-33 -68.5t-80 -26.5q-50 0 -81.5 35t-31.5 95q0 78 47.5 149
t122.5 110l36 -52q-45 -29 -71.5 -66.5t-40.5 -86.5l3 -3q17 10 32 10q40 0 68.5 -27z" />
    <glyph glyph-name="quotedblright" unicode="&#x201d;" horiz-adv-x="542" 
d="M225.5 684q31.5 -35 31.5 -95q0 -78 -47.5 -149t-122.5 -110l-36 52q45 30 71.5 67t40.5 86l-3 3q-20 -10 -32 -10q-40 0 -68.5 27.5t-28.5 69.5t33 68t80 26q50 0 81.5 -35zM483 684q32 -35 32 -95q0 -78 -47.5 -149t-122.5 -110l-36 52q44 30 70.5 67.5t40.5 85.5l-3 4
q-16 -11 -31 -11q-41 0 -69.5 27t-28.5 70q0 42 33 68t80 26q50 0 82 -35z" />
    <glyph glyph-name="quotedblbase" unicode="&#x201e;" horiz-adv-x="542" 
d="M225.5 137q31.5 -35 31.5 -95q0 -79 -47.5 -150t-122.5 -109l-36 51q45 30 71.5 67t40.5 86l-3 4q-17 -10 -32 -10q-40 0 -68.5 27t-28.5 69t33 68.5t80 26.5q50 0 81.5 -35zM483 137q32 -35 32 -95q0 -79 -47.5 -150t-122.5 -109l-36 51q44 30 70.5 67.5t40.5 85.5l-3 4
q-17 -10 -31 -10q-41 0 -69.5 27t-28.5 69t33 68.5t80 26.5q50 0 82 -35z" />
    <glyph glyph-name="dagger" unicode="&#x2020;" horiz-adv-x="431" 
d="M162 446q21 29 34 72l-2 3q-35 -7 -71 -19t-54 -12q-24 0 -38.5 13t-14.5 34q0 20 14.5 33.5t37.5 13.5q19 0 57 -12q37 -12 70 -19l2 2q-6 30 -21 66q-5 13 -9 25.5t-4 23.5q0 23 15 36t38 13q22 0 36.5 -13t14.5 -36q0 -18 -12 -49q-13 -31 -20 -66l2 -2q33 7 70 19
q36 12 55 12q24 0 38.5 -13.5t14.5 -33.5q0 -21 -14.5 -34t-39.5 -13q-18 0 -51 12q-41 13 -73 19l-2 -3q13 -43 34 -72q-38 -131 -39 -446h-29q-1 315 -39 446z" />
    <glyph glyph-name="daggerdbl" unicode="&#x2021;" horiz-adv-x="431" 
d="M178.5 -6q-14.5 13 -14.5 36q0 17 12 48q14 35 21 67l-2 2q-31 -6 -72 -19q-36 -12 -55 -12q-24 0 -38 13t-14 34t14.5 34.5t38.5 13.5q18 0 54 -12t71 -19l2 2q0 46 -41 168q41 121 41 167l-2 3q-35 -7 -71 -19t-54 -12q-24 0 -38.5 13t-14.5 34t14 34t38 13
q19 0 57 -12q37 -12 70 -19l2 2q-6 31 -21 67q-5 13 -9 25.5t-4 23.5q0 23 15 36t38 13t37 -13t14 -36q0 -17 -12 -48q-2 -5 -8.5 -24.5t-11.5 -43.5l2 -2q33 6 70 19q36 12 55 12q24 0 38.5 -13t14.5 -34t-14.5 -34t-39.5 -13q-18 0 -51 12q-41 13 -73 19l-2 -3
q0 -46 41 -167q-41 -122 -41 -168l2 -2q36 7 72 19q34 12 53 12q24 0 38.5 -13.5t14.5 -34.5t-14 -34t-38 -13q-20 0 -54 12q-41 13 -72 19l-2 -2q7 -33 21 -68q5 -13 8.5 -24.5t3.5 -22.5q0 -23 -14.5 -36t-37.5 -13t-37.5 13z" />
    <glyph glyph-name="bullet" unicode="&#x2022;" horiz-adv-x="327" 
d="M89.5 200.5q-33.5 19.5 -53.5 53t-20 73.5q0 39 20 72t53.5 52.5t73.5 19.5t74 -19.5t54 -52.5t20 -72q0 -40 -20 -73.5t-54 -53t-74 -19.5t-73.5 19.5z" />
    <glyph glyph-name="ellipsis" unicode="&#x2026;" horiz-adv-x="852" 
d="M67 10q-31 29 -31 76q0 46 30.5 75t75.5 29q44 0 75 -29t31 -75q0 -47 -30.5 -76t-75.5 -29q-44 0 -75 29zM351 10q-31 29 -31 76q0 46 30.5 75t75.5 29q44 0 75 -29t31 -75q0 -47 -30.5 -76t-75.5 -29q-44 0 -75 29zM635 10q-31 29 -31 76q0 46 30.5 75t75.5 29
q44 0 75 -29t31 -75q0 -47 -30.5 -76t-75.5 -29q-44 0 -75 29z" />
    <glyph glyph-name="perthousand" unicode="&#x2030;" horiz-adv-x="1300" 
d="M110.5 357.5q-44.5 24.5 -70 68.5t-25.5 100q0 57 24.5 101t69.5 68t103 24q57 0 102 -24.5t70 -68.5t25 -101q0 -56 -24.5 -99.5t-69 -68t-102.5 -24.5t-102.5 24.5zM624 700l-305 -700h-71l306 700h70zM265.5 433.5q19.5 33.5 19.5 91.5q0 60 -20 93t-53 33
t-52.5 -32.5t-19.5 -92.5q0 -59 20 -92.5t53 -33.5t52.5 33.5zM557 5q-45 25 -70 69t-25 100q0 57 24.5 100.5t69 67.5t102.5 24q57 0 102 -24.5t70 -68.5t25 -100t-24.5 -100t-69 -68.5t-102.5 -24.5q-57 0 -102 25zM986.5 5q-44.5 25 -69.5 69t-25 100q0 57 24.5 100.5
t69 67.5t102.5 24q57 0 101.5 -24.5t69.5 -68.5t25 -100t-24.5 -100t-68.5 -68.5t-102 -24.5t-102.5 25zM711.5 80.5q19.5 33.5 19.5 92.5t-20 92.5t-53 33.5t-52.5 -33t-19.5 -93q0 -58 20 -92t53 -34t52.5 33.5zM1141 80.5q19 33.5 19 92.5t-19.5 92.5t-52.5 33.5
t-52.5 -33t-19.5 -93q0 -59 20 -92.5t53 -33.5t52 33.5z" />
    <glyph glyph-name="guilsinglleft" unicode="&#x2039;" horiz-adv-x="306" 
d="M27 272l211 226l40 -28l-101 -227l101 -228l-40 -27l-211 226v58z" />
    <glyph glyph-name="guilsinglright" unicode="&#x203a;" horiz-adv-x="306" 
d="M128 243l-101 227l41 28l210 -226v-58l-210 -226l-41 27z" />
    <glyph glyph-name="fraction" unicode="&#x2044;" horiz-adv-x="155" 
d="M372 700l-524 -700h-65l524 700h65z" />
    <glyph glyph-name="uni2070" unicode="&#x2070;" horiz-adv-x="260" 
d="M44.5 458q-31.5 37 -31.5 106q0 68 31.5 105.5t85.5 37.5q55 0 86 -37.5t31 -105.5q0 -69 -31 -106t-86 -37q-54 0 -85.5 37zM159 478q9 27 9 86q0 60 -9 86.5t-29 26.5t-28.5 -26.5t-8.5 -86.5t8.5 -86.5t28.5 -26.5t29 27z" />
    <glyph glyph-name="uni2074" unicode="&#x2074;" horiz-adv-x="260" 
d="M204 478q0 -25 29 -34l-3 -15h-131l-3 15q30 9 30 34v14h-113v21l135 187h56v-179h43l-7 -29h-36v-14zM126 618h-3l-70 -96v-1h73v97z" />
    <glyph glyph-name="uni2075" unicode="&#x2075;" horiz-adv-x="236" 
d="M191 582q28 -24 28 -62q0 -43 -30.5 -71t-84.5 -28q-33 0 -60 13.5t-27 37.5q0 12 8 20.5t19 8.5q15 0 21.5 -6t11.5 -17q6 -13 13 -19.5t26 -6.5q22 0 34.5 12.5t12.5 34.5q0 21 -17.5 36t-48.5 15q-29 0 -56 -15l-18 4l24 161h105q13 0 28.5 2.5t21.5 5.5h5l-9 -64
h-130l-7 -48q20 10 53 10q49 0 77 -24z" />
    <glyph glyph-name="uni2076" unicode="&#x2076;" horiz-adv-x="250" 
d="M214 582.5q22 -25.5 22 -64.5q0 -42 -31.5 -69t-80.5 -27t-79.5 34t-30.5 91q0 79 50 119.5t130 40.5l1 -20q-34 0 -60 -24.5t-36 -72.5h1q7 7 21.5 12.5t29.5 5.5q41 0 63 -25.5zM149.5 465.5q7.5 16.5 7.5 50.5q0 55 -34 55q-7 0 -15.5 -4.5t-13.5 -12.5q-1 -8 -1 -23
q0 -44 6.5 -63t24.5 -19t25.5 16.5z" />
    <glyph glyph-name="uni2077" unicode="&#x2077;" horiz-adv-x="234" 
d="M217 661q-44 -56 -63 -97t-19 -101q0 -21 -12 -31.5t-28 -10.5q-18 0 -29 12t-11 30q0 50 34 97.5t80 81.5v2h-41q-42 0 -62 -10.5t-34 -25.5l-16 8l28 92h6q5 -3 24.5 -5.5t33.5 -2.5h109v-39z" />
    <glyph glyph-name="uni2078" unicode="&#x2078;" horiz-adv-x="251" 
d="M44 444.5q-29 21.5 -29 52.5q0 47 47 71v2q-17 12 -26 26.5t-9 37.5q0 31 29 52.5t75 21.5q44 0 68.5 -19t24.5 -44q0 -43 -41 -64v-2q26 -13 40 -29.5t14 -44.5q0 -37 -32.5 -59.5t-84.5 -22.5q-47 0 -76 21.5zM176 645q0 16 -9 25.5t-27 9.5q-16 0 -25.5 -7.5
t-9.5 -22.5q0 -17 11 -29t31 -22q29 18 29 46zM147.5 460.5q11.5 9.5 11.5 26.5q0 21 -16 34t-47 29q-29 -20 -29 -54q0 -20 13.5 -32.5t35.5 -12.5q20 0 31.5 9.5z" />
    <glyph glyph-name="uni2079" unicode="&#x2079;" horiz-adv-x="250" 
d="M206 674.5q30 -33.5 30 -90.5q0 -80 -50 -120.5t-130 -40.5v20q35 0 61 24.5t36 72.5h-3q-7 -8 -21 -13t-29 -5q-42 0 -64 26.5t-22 64.5q0 41 31.5 68t80.5 27q50 0 80 -33.5zM144 564q9 6 13 15q1 6 1 19q0 44 -7 63.5t-25 19.5q-32 0 -32 -68q0 -27 8 -41t26 -14
q7 0 16 6z" />
    <glyph glyph-name="uni207F" unicode="&#x207f;" horiz-adv-x="296" 
d="M287 434l-4 -18h-112l-4 18q22 6 19 40l-10 93q-5 43 -35 43q-16 0 -25.5 -12t-9.5 -31v-93q0 -33 23 -40l-4 -18h-112l-4 18q23 7 23 40v89q0 17 -6 27.5t-17 12.5l4 18q22 3 41 12t41 23h7l2 -34h2q25 34 62 34q38 0 59 -23t25 -71l8 -88q4 -34 27 -40z" />
    <glyph glyph-name="uni2080" unicode="&#x2080;" horiz-adv-x="260" 
d="M44.5 29.5q-31.5 37.5 -31.5 105.5t31.5 106t85.5 38q55 0 86 -38t31 -106t-31 -105.5t-86 -37.5q-54 0 -85.5 37.5zM159 49.5q9 26.5 9 85.5q0 60 -9 86.5t-29 26.5t-28.5 -26.5t-8.5 -86.5t8.5 -86t28.5 -26t29 26.5z" />
    <glyph glyph-name="uni2081" unicode="&#x2081;" horiz-adv-x="188" 
d="M56 50v164h-28l-3 18l86 39h23v-221q0 -25 29 -35l-3 -15h-131l-3 15q30 10 30 35z" />
    <glyph glyph-name="uni2082" unicode="&#x2082;" horiz-adv-x="242" 
d="M199 -8h-6q-7 3 -25.5 5.5t-31.5 2.5h-117v41q53 37 83.5 74t30.5 84q0 23 -12 36.5t-31 13.5q-21 0 -36.5 -18t-15.5 -49l-22 4q1 42 27.5 67.5t68.5 25.5q43 0 71 -21.5t28 -58.5q0 -46 -33 -79t-91 -62v-2h28q42 0 62.5 10.5t32.5 24.5l16 -8z" />
    <glyph glyph-name="uni2083" unicode="&#x2083;" horiz-adv-x="241" 
d="M43.5 6.5q-27.5 13.5 -27.5 37.5q0 13 8 21.5t21 8.5q14 0 20.5 -7t11.5 -21q5 -12 10.5 -18t16.5 -6q20 0 32 15t12 42t-14 43.5t-40 16.5h-11v26h9q19 0 29.5 12.5t10.5 32.5q0 18 -10.5 29t-29.5 11t-32 -13.5t-14 -38.5l-19 2q2 37 26.5 58t65.5 21q40 0 63.5 -17.5
t23.5 -44.5q0 -19 -11.5 -34t-34.5 -23v-2q28 -5 46.5 -24.5t18.5 -46.5q0 -41 -31.5 -67.5t-88.5 -26.5q-34 0 -61.5 13.5z" />
    <glyph glyph-name="uni2084" unicode="&#x2084;" horiz-adv-x="260" 
d="M204 50q0 -26 29 -35l-3 -15h-131l-3 15q30 9 30 35v14h-113v21l135 186h56v-179h43l-7 -28h-36v-14zM126 189h-3l-70 -95v-2h73v97z" />
    <glyph glyph-name="uni2085" unicode="&#x2085;" horiz-adv-x="236" 
d="M191 153q28 -24 28 -62q0 -43 -30.5 -71t-84.5 -28q-33 0 -60 13.5t-27 37.5q0 12 8 20.5t19 8.5q15 0 21.5 -6t11.5 -17q6 -13 13 -19.5t26 -6.5q22 0 34.5 12.5t12.5 34.5q0 21 -17.5 36t-48.5 15q-29 0 -56 -15l-18 4l24 161h105q13 0 28.5 2.5t21.5 5.5h5l-9 -64
h-130l-7 -48q20 10 53 10q49 0 77 -24z" />
    <glyph glyph-name="uni2086" unicode="&#x2086;" horiz-adv-x="250" 
d="M214 155.5q22 -25.5 22 -64.5q0 -43 -31 -69.5t-81 -26.5q-49 0 -79.5 34t-30.5 91q0 79 50 119.5t130 40.5l1 -20q-34 0 -60 -24.5t-36 -72.5h1q7 7 21.5 12.5t29.5 5.5q41 0 63 -25.5zM149.5 38.5q7.5 16.5 7.5 50.5q0 55 -34 55q-7 0 -15.5 -4.5t-13.5 -12.5
q-1 -8 -1 -23q0 -44 6.5 -63t24.5 -19t25.5 16.5z" />
    <glyph glyph-name="uni2087" unicode="&#x2087;" horiz-adv-x="234" 
d="M217 232q-44 -56 -63 -97t-19 -101q0 -21 -12 -31.5t-28 -10.5q-18 0 -29 12t-11 30q0 50 34 97.5t80 80.5v3h-41q-42 0 -62 -10.5t-34 -25.5l-16 8l28 92h6q5 -3 24.5 -5.5t33.5 -2.5h109v-39z" />
    <glyph glyph-name="uni2088" unicode="&#x2088;" horiz-adv-x="251" 
d="M44 16q-29 21 -29 52q0 47 47 71v2q-17 12 -26 26.5t-9 37.5q0 31 29 53t75 22q44 0 68.5 -19.5t24.5 -44.5q0 -22 -11 -38t-30 -25v-2q27 -15 40.5 -30.5t13.5 -43.5q0 -37 -32.5 -59.5t-84.5 -22.5q-47 0 -76 21zM168 190.5q8 12.5 8 26.5q0 16 -9.5 25.5t-26.5 9.5
q-16 0 -25.5 -8t-9.5 -23q0 -30 42 -50q13 7 21 19.5zM147.5 32q11.5 10 11.5 27q0 21 -15.5 33.5t-47.5 28.5q-29 -19 -29 -53q0 -20 13.5 -33t35.5 -13q20 0 31.5 10z" />
    <glyph glyph-name="uni2089" unicode="&#x2089;" horiz-adv-x="250" 
d="M206 245.5q30 -33.5 30 -90.5q0 -80 -50 -120.5t-130 -40.5v20q34 0 60 24.5t36 72.5h-2q-7 -7 -21.5 -12.5t-29.5 -5.5q-41 0 -63 25.5t-22 64.5q0 43 31 69.5t81 26.5t80 -33.5zM143.5 135.5q8.5 5.5 13.5 14.5q1 6 1 20q0 44 -7 63t-25 19q-33 0 -33 -67q0 -55 34 -55
q8 0 16.5 5.5z" />
    <glyph glyph-name="Euro" unicode="&#x20ac;" horiz-adv-x="713" 
d="M594 91.5q39 23.5 69 64.5l36 -28q-77 -147 -243 -147q-131 0 -215 66.5t-110 188.5h-112v78h102q-1 11 -1 34q0 15 2 43h-103v75h115q21 79 67.5 136t111 87.5t139.5 30.5q27 0 73 -8q44 -8 69 -8q35 0 45.5 7.5t11.5 8.5h14l36 -196l-39 -11q-31 66 -71 99.5t-101 33.5
q-64 0 -111.5 -48.5t-67.5 -131.5h220v-75h-230q-1 -10 -1 -31q0 -16 2 -46h229v-78h-218q21 -82 70 -125t119 -43q53 0 92 23.5z" />
    <glyph glyph-name="uni2113" unicode="&#x2113;" horiz-adv-x="442" 
d="M115 23q-33 42 -33 113q0 22 3 44l6 49l-73 -50l-10 27l89 67l15 97q25 181 77 266t139 85q44 0 72.5 -33t28.5 -89q0 -64 -35.5 -120t-81.5 -96t-109 -85q-7 -6 -21 -16l-12 -82q-5 -35 -5 -56q0 -100 76 -100q35 0 67.5 22t66.5 58l19 -21q-41 -56 -90.5 -89
t-102.5 -33t-86 42zM363 581q2 18 2 25q0 35 -14.5 56t-40.5 21q-39 0 -63.5 -56t-41.5 -176l-17 -123q157 123 175 253z" />
    <glyph glyph-name="trademark" unicode="&#x2122;" horiz-adv-x="485" 
d="M224 638l-13 -6q-11 16 -27.5 28.5t-37.5 14.5v-146q0 -23 16 -28l-3 -13h-88l-3 13q16 5 16 28v146q-21 -1 -38 -13.5t-28 -29.5l-13 6l20 62h182zM471 501l-2 -13h-87l-3 13q16 5 16 28l-1 85h-1l-48 -126h-22l-46 126h-2v-85q0 -23 16 -28l-4 -13h-51l-3 13
q16 5 16 28v130q-2 24 -16 28l2 13h74l43 -117h2l43 117h72l2 -13q-15 -5 -15 -28l-1 -130q0 -23 16 -28z" />
    <glyph glyph-name="uni2126" unicode="&#x2126;" horiz-adv-x="825" 
d="M64 232q18 -36 56 -63.5t102 -27.5h62v7q-101 50 -170 125t-69 172q0 84 44 145.5t126.5 95t196.5 33.5t196.5 -33.5t126.5 -95t44 -145.5q0 -97 -69 -172t-170 -125l1 -7h61q65 0 103 27.5t55 63.5l41 -20l-69 -235h-14q-15 11 -47.5 17t-64.5 6h-163v170
q72 48 105 109.5t33 154.5q0 105 -37.5 162t-131.5 57t-131.5 -57.5t-36.5 -161.5q0 -93 32.5 -154.5t103.5 -109.5l1 -170h-162q-33 0 -65 -6t-47 -17h-15l-69 235z" />
    <glyph glyph-name="estimated" unicode="&#x212e;" horiz-adv-x="807" 
d="M217 30.5q-86 49.5 -136.5 134.5t-50.5 185q0 101 50 185.5t136 134t187 49.5t187 -49.5t136.5 -134t50.5 -185.5v-9h-577v-244q96 -74 206 -74q74 0 128 23t96 78h53q-49 -68 -119.5 -105.5t-159.5 -37.5q-101 0 -187 49.5zM601 605q-39 36 -89.5 55t-106.5 19
q-119 0 -203 -79v-220h399v225z" />
    <glyph glyph-name="partialdiff" unicode="&#x2202;" horiz-adv-x="640" 
d="M476 682.5q65 -36.5 105.5 -108t40.5 -171.5q0 -55 -13 -113q-19 -92 -68.5 -162t-122.5 -108.5t-159 -38.5q-75 0 -129.5 28t-83.5 77t-29 109q0 27 6 55q15 70 59 119t106.5 74t132.5 25q29 0 59.5 -8t50.5 -19q4 39 4 84q0 111 -40 111q-15 0 -25.5 -8t-24.5 -25
q-15 -19 -27.5 -28.5t-32.5 -9.5q-32 0 -51.5 18.5t-19.5 46.5q0 40 32.5 64.5t92.5 24.5q72 0 137 -36.5zM349.5 93.5q29.5 49.5 50.5 149.5q13 58 23 136q-29 27 -75 27t-78.5 -41t-47.5 -116q-12 -58 -12 -101q0 -47 15 -75.5t48 -28.5q47 0 76.5 49.5z" />
    <glyph glyph-name="uni2206" unicode="&#x2206;" horiz-adv-x="722" 
d="M432 700l270 -700h-681l270 700h141zM294 511l-171 -440h343z" />
    <glyph glyph-name="product" unicode="&#x220f;" horiz-adv-x="793" 
d="M91 126l-1 447q0 67 -71 88l8 39h739l8 -39q-71 -21 -71 -88v-447q0 -66 71 -87l-8 -39h-315l-8 39q71 21 71 87v490h-236l1 -490q0 -66 72 -87l-8 -39h-315l-8 39q71 21 71 87z" />
    <glyph glyph-name="summation" unicode="&#x2211;" horiz-adv-x="646" 
d="M226 322l-201 326v52h525l52 -175l-40 -18q-48 65 -107 93.5t-149 28.5h-46l134 -220l-196 -265h164q76 0 118 5t70.5 21t54.5 49l38 -24l-88 -195h-538v52z" />
    <glyph glyph-name="minus" unicode="&#x2212;" horiz-adv-x="365" 
d="M354 338v-120h-344v120h344z" />
    <glyph glyph-name="uni2215" unicode="&#x2215;" horiz-adv-x="249" 
d="M293 358v-117h-315v117h315z" />
    <glyph glyph-name="uni2219" unicode="&#x2219;" horiz-adv-x="254" 
d="M52 289.5q-31 29.5 -31 75.5t31 75t75 29q45 0 75.5 -29t30.5 -75t-30.5 -75.5t-75.5 -29.5q-44 0 -75 29.5z" />
    <glyph glyph-name="radical" unicode="&#x221a;" horiz-adv-x="568" 
d="M10 219v65h153l82 -198l254 614h71l-289 -700h-71l-91 219h-109z" />
    <glyph glyph-name="infinity" unicode="&#x221e;" horiz-adv-x="850" 
d="M111 179.5q-45 26.5 -71.5 71.5t-26.5 99t26.5 99t71.5 71.5t98 26.5q70 0 119 -36.5t95 -101.5h3q48 66 96.5 102t117.5 36q53 0 98 -26.5t71.5 -71.5t26.5 -99q0 -53 -26.5 -98.5t-71.5 -72t-97 -26.5q-70 0 -119 36t-97 102h-3q-45 -65 -94.5 -101.5t-118.5 -36.5
q-53 0 -98 26.5zM706 248.5q30 17.5 47.5 48t17.5 65.5q0 36 -17.5 66.5t-48 48.5t-65.5 18q-53 0 -92 -33.5t-83 -98.5q45 -65 83.5 -98.5t92.5 -33.5q35 0 65 17.5zM302 239q39 33 83 97q-44 65 -83 99t-93 34q-35 0 -65 -17.5t-47.5 -47.5t-17.5 -66t17.5 -66.5t47.5 -48
t65 -17.5q54 0 93 33z" />
    <glyph glyph-name="integral" unicode="&#x222b;" horiz-adv-x="318" 
d="M-93.5 -174.5q-34.5 23.5 -34.5 68.5q0 28 22 49t51 21q28 0 42.5 -14.5t28.5 -40.5q9 -17 14.5 -24t14.5 -7q16 0 25 15t9 40v728q0 74 32.5 127.5t87 81t120.5 27.5q53 0 87 -22t34 -60q0 -33 -20 -54t-53 -21q-28 0 -41.5 13t-26.5 38q-8 16 -13 22.5t-14 6.5
q-16 0 -24.5 -15t-8.5 -40v-725q0 -76 -32.5 -130t-87.5 -81t-121 -27q-57 0 -91.5 23.5z" />
    <glyph glyph-name="approxequal" unicode="&#x2248;" horiz-adv-x="474" 
d="M281.5 368.5q-32.5 10.5 -78.5 30.5q-34 15 -55 22.5t-42 7.5q-19 0 -34 -12t-24 -31l-38 20q14 39 45 63.5t73 24.5q39 0 72.5 -10.5t78.5 -30.5q35 -15 56 -22t41 -7q28 0 52 30l35 -26q-16 -29 -46 -49.5t-64 -20.5q-39 0 -71.5 10.5zM281.5 222.5
q-32.5 10.5 -78.5 30.5q-34 15 -55 22.5t-41 7.5t-35 -12t-24 -31l-38 20q14 39 45 63.5t73 24.5q39 0 72.5 -10.5t78.5 -30.5q35 -15 56 -22t41 -7q27 0 52 31l35 -26q-16 -30 -46 -50.5t-64 -20.5q-39 0 -71.5 10.5z" />
    <glyph glyph-name="notequal" unicode="&#x2260;" horiz-adv-x="573" 
d="M10 220v65h224l37 133h-261v66h280l41 143h67l-42 -143h207v-66h-224l-38 -133h262v-65h-280l-41 -145h-67l40 145h-205z" />
    <glyph glyph-name="lessequal" unicode="&#x2264;" horiz-adv-x="574" 
d="M32 372l510 210v-70l-419 -174v-4l420 -173v-71l-511 211v71zM563 64v-64h-553v64h553z" />
    <glyph glyph-name="greaterequal" unicode="&#x2265;" horiz-adv-x="574" 
d="M451 334v4l-419 174v70l510 -210v-71l-511 -211v71zM563 64v-64h-553v64h553z" />
    <glyph glyph-name="lozenge" unicode="&#x25ca;" horiz-adv-x="558" 
d="M244 700h71l211 -350l-211 -350h-71l-211 350zM455 350l-174 289h-4l-173 -289l173 -288h4z" />
    <glyph glyph-name="uniE000" unicode="&#xe000;" horiz-adv-x="0" 
 />
    <glyph glyph-name="A.s1" unicode="&#xe002;" horiz-adv-x="945" 
d="M880.5 625q-10.5 -21 -10.5 -52v-446q0 -36 13.5 -58.5t37.5 -29.5l-8 -39h-275l-8 39q24 7 38 29.5t14 57.5q-20 65 -70.5 122.5t-114.5 92.5l-46 -94l-59 -121q-39 -76 -92.5 -114.5t-144.5 -38.5q-54 0 -93.5 16t-60 42t-20.5 55q0 32 17 52t50 20q31 0 47 -13t33 -40
q15 -24 29 -36.5t40 -12.5q42 0 69 24.5t58 80.5q27 51 62 123l43 85q-32 9 -59 9q-51 0 -79 -16.5t-28 -42.5q0 -15 9 -31q1 -2 6 -14t5 -27q0 -33 -23 -54t-59 -21t-59.5 28t-23.5 66q0 53 33 95t90.5 65.5t128.5 23.5q42 0 93 -14l11 22q46 89 91 142t106.5 80.5
t149.5 27.5q43 0 102 -8l-6 -19l4 -20q-4 -1 -12 -5q-18 -10 -28.5 -31zM676 299h6v316q-47 -29 -76 -70.5t-59 -103.5l-9 -18q-6 -11 -7 -13q85 -40 145 -111z" />
    <glyph glyph-name="Aacute.s1" unicode="&#xe003;" horiz-adv-x="945" 
d="M718 773l102 129q17 20 32 30t37 10q21 0 35 -14t14 -33q0 -21 -11 -36t-31 -27l-140 -90zM566 600q45 53 106 80.5t148 27.5q42 0 103 -8l-6 -19l4 -20q-4 -1 -12 -5q-18 -10 -28.5 -31t-10.5 -52v-446q0 -36 13.5 -58.5t37.5 -29.5l-8 -39h-275l-8 39q24 7 38 29.5
t14 57.5q-20 65 -70.5 122.5t-114.5 91.5q-66 -136 -105 -214q-39 -76 -92.5 -114.5t-144.5 -38.5q-54 0 -93.5 16t-60 42t-20.5 55q0 32 17 52t50 20q31 0 47 -13t33 -40q15 -24 29 -36.5t40 -12.5q42 0 69 24.5t58 80.5q33 65 51 102l54 106q-32 9 -59 9q-51 0 -79 -16.5
t-28 -42.5q0 -15 9 -31q1 -2 6 -14t5 -27q0 -33 -23 -54t-59 -21t-59.5 28t-23.5 66q0 53 33 95t90.5 65.5t128.5 23.5q42 0 93 -14l11 22q47 89 92 142zM676 299h6v315q-46 -28 -74 -67.5t-58 -100.5l-12 -23l-6 -13q85 -40 144 -111z" />
    <glyph glyph-name="Abreve.s1" unicode="&#xe004;" horiz-adv-x="945" 
d="M916.5 800.5q-40.5 -28.5 -99.5 -28.5t-99 28.5t-57 73.5l50 29q10 -24 39.5 -38.5t66.5 -14.5t67.5 14t40.5 37l49 -27q-17 -45 -57.5 -73.5zM566 600q45 53 106 80.5t148 27.5q42 0 103 -8l-6 -19l4 -20q-4 -1 -12 -5q-18 -10 -28.5 -31t-10.5 -52v-446
q0 -36 13.5 -58.5t37.5 -29.5l-8 -39h-275l-8 39q24 7 38 29.5t14 57.5q-20 65 -70.5 122.5t-114.5 91.5q-66 -136 -105 -214q-39 -76 -92.5 -114.5t-144.5 -38.5q-54 0 -93.5 16t-60 42t-20.5 55q0 32 17 52t50 20q31 0 47 -13t33 -40q15 -24 29 -36.5t40 -12.5
q42 0 69 24.5t58 80.5q33 65 51 102l54 106q-32 9 -59 9q-51 0 -79 -16.5t-28 -42.5q0 -15 9 -31q1 -2 6 -14t5 -27q0 -33 -23 -54t-59 -21t-59.5 28t-23.5 66q0 53 33 95t90.5 65.5t128.5 23.5q42 0 93 -14l11 22q47 89 92 142zM676 299h6v315q-46 -28 -74 -67.5
t-58 -100.5l-12 -23l-6 -13q85 -40 144 -111z" />
    <glyph glyph-name="Acircumflex.s1" unicode="&#xe005;" horiz-adv-x="945" 
d="M602 777l164 143l163 -143l-24 -40l-139 59l-140 -59zM566 600q45 53 106 80.5t148 27.5q42 0 103 -8l-6 -19l4 -20q-4 -1 -12 -5q-18 -10 -28.5 -31t-10.5 -52v-446q0 -36 13.5 -58.5t37.5 -29.5l-8 -39h-275l-8 39q24 7 38 29.5t14 57.5q-20 65 -70.5 122.5
t-114.5 91.5q-66 -136 -105 -214q-39 -76 -92.5 -114.5t-144.5 -38.5q-54 0 -93.5 16t-60 42t-20.5 55q0 32 17 52t50 20q31 0 47 -13t33 -40q15 -24 29 -36.5t40 -12.5q42 0 69 24.5t58 80.5q33 65 51 102l54 106q-32 9 -59 9q-51 0 -79 -16.5t-28 -42.5q0 -15 9 -31
q1 -2 6 -14t5 -27q0 -33 -23 -54t-59 -21t-59.5 28t-23.5 66q0 53 33 95t90.5 65.5t128.5 23.5q42 0 93 -14l11 22q47 89 92 142zM676 299h6v315q-46 -28 -74 -67.5t-58 -100.5l-12 -23l-6 -13q85 -40 144 -111z" />
    <glyph glyph-name="Adieresis.s1" unicode="&#xe006;" horiz-adv-x="945" 
d="M602 785.5q-21 21.5 -21 51.5q0 31 21 53t58 22q36 0 58 -22.5t22 -52.5q0 -29 -21.5 -51t-58.5 -22t-58 21.5zM926.5 889.5q21.5 -22.5 21.5 -52.5t-21.5 -51.5t-57.5 -21.5t-57.5 21.5t-21.5 51.5t21.5 52.5t57.5 22.5t57.5 -22.5zM566 600q45 53 106 80.5t148 27.5
q42 0 103 -8l-6 -19l4 -20q-4 -1 -12 -5q-18 -10 -28.5 -31t-10.5 -52v-446q0 -36 13.5 -58.5t37.5 -29.5l-8 -39h-275l-8 39q24 7 38 29.5t14 57.5q-20 65 -70.5 122.5t-114.5 91.5q-66 -136 -105 -214q-39 -76 -92.5 -114.5t-144.5 -38.5q-54 0 -93.5 16t-60 42t-20.5 55
q0 32 17 52t50 20q31 0 47 -13t33 -40q15 -24 29 -36.5t40 -12.5q42 0 69 24.5t58 80.5q33 65 51 102l54 106q-32 9 -59 9q-51 0 -79 -16.5t-28 -42.5q0 -15 9 -31q1 -2 6 -14t5 -27q0 -33 -23 -54t-59 -21t-59.5 28t-23.5 66q0 53 33 95t90.5 65.5t128.5 23.5q42 0 93 -14
l11 22q47 89 92 142zM676 299h6v315q-46 -28 -74 -67.5t-58 -100.5l-12 -23l-6 -13q85 -40 144 -111z" />
    <glyph glyph-name="Agrave.s1" unicode="&#xe007;" horiz-adv-x="945" 
d="M586 859q-11 15 -11 36q0 19 14.5 33t35.5 14t36 -10t32 -30l103 -129l-39 -31l-140 90q-20 12 -31 27zM880.5 625q-10.5 -21 -10.5 -52v-446q0 -36 13.5 -58.5t37.5 -29.5l-8 -39h-275l-8 39q24 7 38 29.5t14 57.5q-20 65 -70.5 122.5t-114.5 91.5q-66 -136 -105 -214
q-39 -76 -92.5 -114.5t-144.5 -38.5q-54 0 -93.5 16t-60 42t-20.5 55q0 32 17 52t50 20q31 0 47 -13t33 -40q15 -24 29 -36.5t40 -12.5q42 0 69 24.5t58 80.5q33 65 51 102l54 106q-32 9 -59 9q-51 0 -79 -16.5t-28 -42.5q0 -15 9 -31q1 -2 6 -14t5 -27q0 -33 -23 -54
t-59 -21t-59.5 28t-23.5 66q0 53 33 95t90.5 65.5t128.5 23.5q42 0 93 -14l11 22q47 89 92 142t106 80.5t148 27.5q42 0 103 -8l-6 -19l4 -20q-4 -1 -12 -5q-18 -10 -28.5 -31zM676 299h6v315q-46 -28 -74 -67.5t-58 -100.5l-12 -23l-6 -13q85 -40 144 -111z" />
    <glyph glyph-name="Amacron.s1" unicode="&#xe008;" horiz-adv-x="945" 
d="M945 788h-309v77h309v-77zM566 600q45 53 106 80.5t148 27.5q42 0 103 -8l-6 -19l4 -20q-4 -1 -12 -5q-18 -10 -28.5 -31t-10.5 -52v-446q0 -36 13.5 -58.5t37.5 -29.5l-8 -39h-275l-8 39q24 7 38 29.5t14 57.5q-20 65 -70.5 122.5t-114.5 91.5q-66 -136 -105 -214
q-39 -76 -92.5 -114.5t-144.5 -38.5q-54 0 -93.5 16t-60 42t-20.5 55q0 32 17 52t50 20q31 0 47 -13t33 -40q15 -24 29 -36.5t40 -12.5q42 0 69 24.5t58 80.5q33 65 51 102l54 106q-32 9 -59 9q-51 0 -79 -16.5t-28 -42.5q0 -15 9 -31q1 -2 6 -14t5 -27q0 -33 -23 -54
t-59 -21t-59.5 28t-23.5 66q0 53 33 95t90.5 65.5t128.5 23.5q42 0 93 -14l11 22q47 89 92 142zM676 299h6v315q-46 -28 -74 -67.5t-58 -100.5l-12 -23l-6 -13q85 -40 144 -111z" />
    <glyph glyph-name="Aogonek.s1" unicode="&#xe009;" horiz-adv-x="945" 
d="M896.5 -200q-32.5 -20 -78.5 -20q-57 0 -90.5 30.5t-33.5 76.5q0 67 57 113h-113l-8 39q24 7 38 29.5t14 57.5q-20 65 -70.5 122.5t-114.5 91.5q-66 -136 -105 -214q-39 -76 -92.5 -114.5t-144.5 -38.5q-54 0 -93.5 16t-60 42t-20.5 55q0 32 17 52t50 20q31 0 47 -13
t33 -40q15 -24 29 -36.5t40 -12.5q42 0 69 24.5t58 80.5q33 65 51 102l54 106q-32 9 -59 9q-51 0 -79 -16.5t-28 -42.5q0 -15 9 -31q1 -2 6 -14t5 -27q0 -33 -23 -54t-59 -21t-59.5 28t-23.5 66q0 53 33 95t90.5 65.5t128.5 23.5q42 0 93 -14l11 22q47 89 92 142t106 80.5
t148 27.5q42 0 103 -8l-6 -19l4 -20q-4 -1 -12 -5q-18 -10 -28.5 -31t-10.5 -52v-446q0 -36 13.5 -58.5t37.5 -29.5l-8 -39h-51q-62 -42 -62 -102q0 -21 14 -35t34 -14q37 0 59 38l46 -24q-24 -43 -56.5 -63zM676 299h6v315q-46 -28 -74 -67.5t-58 -100.5l-12 -23l-6 -13
q85 -40 144 -111z" />
    <glyph glyph-name="Aring.s1" unicode="&#xe00a;" horiz-adv-x="945" 
d="M702.5 781q-31.5 31 -31.5 75q0 43 31.5 74.5t76.5 31.5q43 0 74.5 -31.5t31.5 -74.5t-31 -74.5t-75 -31.5q-45 0 -76.5 31zM747 887q-13 -13 -13 -31q0 -20 13 -33t32 -13t31.5 13t12.5 33q0 18 -12.5 31t-31.5 13t-32 -13zM880.5 625q-10.5 -21 -10.5 -52v-446
q0 -36 13.5 -58.5t37.5 -29.5l-8 -39h-275l-8 39q24 7 38 29.5t14 57.5q-20 65 -70.5 122.5t-114.5 91.5q-66 -136 -105 -214q-39 -76 -92.5 -114.5t-144.5 -38.5q-54 0 -93.5 16t-60 42t-20.5 55q0 32 17 52t50 20q31 0 47 -13t33 -40q15 -24 29 -36.5t40 -12.5
q42 0 69 24.5t58 80.5q33 65 51 102l54 106q-32 9 -59 9q-51 0 -79 -16.5t-28 -42.5q0 -15 9 -31q1 -2 6 -14t5 -27q0 -33 -23 -54t-59 -21t-59.5 28t-23.5 66q0 53 33 95t90.5 65.5t128.5 23.5q42 0 93 -14l11 22q47 89 92 142t106 80.5t148 27.5q42 0 103 -8l-6 -19l4 -20
q-4 -1 -12 -5q-18 -10 -28.5 -31zM676 299h6v315q-46 -28 -74 -67.5t-58 -100.5l-12 -23l-6 -13q85 -40 144 -111z" />
    <glyph glyph-name="Aringacute.s1" unicode="&#xe00b;" horiz-adv-x="945" 
d="M946 1088.5q14 -13.5 14 -33.5q0 -21 -11 -36t-31 -27l-67 -43q26 -14 41.5 -39t15.5 -54q0 -44 -31.5 -75t-75.5 -31t-75.5 31t-31.5 75q0 30 16 55t42 39l90 113q18 20 32.5 29.5t36.5 9.5q21 0 35 -13.5zM833 823.5q13 13.5 13 32.5q0 18 -13 31t-32 13t-31.5 -13
t-12.5 -31q0 -20 12.5 -33t31.5 -13t32 13.5zM566 600q45 53 106 80.5t148 27.5q42 0 103 -8l-6 -19l4 -20q-4 -1 -12 -5q-18 -10 -28.5 -31t-10.5 -52v-446q0 -36 13.5 -58.5t37.5 -29.5l-8 -39h-275l-8 39q24 7 38 29.5t14 57.5q-20 65 -70.5 122.5t-114.5 91.5
q-66 -136 -105 -214q-39 -76 -92.5 -114.5t-144.5 -38.5q-54 0 -93.5 16t-60 42t-20.5 55q0 32 17 52t50 20q31 0 47 -13t33 -40q15 -24 29 -36.5t40 -12.5q42 0 69 24.5t58 80.5q33 65 51 102l54 106q-32 9 -59 9q-51 0 -79 -16.5t-28 -42.5q0 -15 9 -31q1 -2 6 -14t5 -27
q0 -33 -23 -54t-59 -21t-59.5 28t-23.5 66q0 53 33 95t90.5 65.5t128.5 23.5q42 0 93 -14l11 22q47 89 92 142zM676 299h6v315q-46 -28 -74 -67.5t-58 -100.5l-12 -23l-6 -13q85 -40 144 -111z" />
    <glyph glyph-name="Atilde.s1" unicode="&#xe00c;" horiz-adv-x="945" 
d="M667 824.5q-11 -9.5 -15 -28.5l-52 13q6 62 34 88t65 26q21 0 39 -7t41 -20q36 -21 57 -21q14 0 25.5 9t15.5 28l50 -12q-7 -62 -35 -88.5t-64 -26.5q-22 0 -40 7.5t-40 20.5q-18 10 -30.5 15.5t-25.5 5.5q-14 0 -25 -9.5zM566 600q45 53 106 80.5t148 27.5q42 0 103 -8
l-6 -19l4 -20q-4 -1 -12 -5q-18 -10 -28.5 -31t-10.5 -52v-446q0 -36 13.5 -58.5t37.5 -29.5l-8 -39h-275l-8 39q24 7 38 29.5t14 57.5q-20 65 -70.5 122.5t-114.5 91.5q-66 -136 -105 -214q-39 -76 -92.5 -114.5t-144.5 -38.5q-54 0 -93.5 16t-60 42t-20.5 55q0 32 17 52
t50 20q31 0 47 -13t33 -40q15 -24 29 -36.5t40 -12.5q42 0 69 24.5t58 80.5q33 65 51 102l54 106q-32 9 -59 9q-51 0 -79 -16.5t-28 -42.5q0 -15 9 -31q1 -2 6 -14t5 -27q0 -33 -23 -54t-59 -21t-59.5 28t-23.5 66q0 53 33 95t90.5 65.5t128.5 23.5q42 0 93 -14l11 22
q47 89 92 142zM676 299h6v315q-46 -28 -74 -67.5t-58 -100.5l-12 -23l-6 -13q85 -40 144 -111z" />
    <glyph glyph-name="B.s1" unicode="&#xe00d;" horiz-adv-x="970" 
d="M890.5 304q48.5 -49 48.5 -118q0 -62 -31.5 -107.5t-88 -70t-129.5 -24.5q-60 0 -144 8q-86 8 -154 8h-115l-8 39q24 7 37.5 29.5t13.5 58.5v498q-10 2 -41 8.5t-53 10t-36 3.5q-36 0 -56.5 -13.5t-20.5 -35.5q0 -12 4 -20.5t13 -21.5q11 -14 16.5 -26t5.5 -30
q0 -31 -22.5 -52.5t-57.5 -21.5q-38 0 -64.5 30t-26.5 70q0 54 26.5 97.5t83.5 69.5t143 26q45 0 96 -7q51 -6 94 -9t123 -3h131q60 0 108.5 -22t76 -61t27.5 -87q0 -55 -34.5 -96.5t-91.5 -58.5v-5q78 -17 126.5 -66zM508 622v-214h82q50 0 81 31.5t31 80.5
q0 47 -29.5 76.5t-82.5 29.5q-40 0 -82 -4zM718.5 108.5q33.5 37.5 33.5 95.5q0 61 -42.5 95.5t-102.5 34.5h-99v-248q58 -15 106 -15q71 0 104.5 37.5z" />
    <glyph glyph-name="C.s1" unicode="&#xe00e;" horiz-adv-x="939" 
d="M879.5 120.5q-36.5 -62.5 -101.5 -101t-153 -38.5q-108 0 -188 47.5t-123 132.5t-43 194q0 70 23.5 131t65.5 110q-34 23 -68 35t-73 12q-46 0 -73.5 -21.5t-27.5 -51.5q0 -15 11 -33q12 -22 12 -41q0 -33 -22 -52.5t-57 -19.5q-36 0 -58.5 28.5t-22.5 69.5q0 54 31.5 98
t85.5 69t121 25q60 0 108 -17t92 -48q96 70 221 70q105 0 169.5 -41t64.5 -111q0 -66 -51.5 -104.5t-125.5 -38.5q-66 0 -119 23.5t-109 65.5q-19 -43 -19 -94q0 -102 35 -173t91.5 -107t120.5 -36q75 0 117.5 50t62.5 115l47 -12q-8 -73 -44.5 -135.5zM583 627.5
q-41 -18.5 -72 -51.5q51 -42 92.5 -63.5t93.5 -21.5q45 0 70 20.5t25 51.5q0 36 -31.5 59.5t-99.5 23.5q-37 0 -78 -18.5z" />
    <glyph glyph-name="Ccaron.s1" unicode="&#xe00f;" horiz-adv-x="939" 
d="M424 882l24 40l140 -58l139 58l24 -40l-163 -143zM879.5 120.5q-36.5 -62.5 -101.5 -101t-153 -38.5q-108 0 -188 47.5t-123 132.5t-43 194q0 70 23.5 131t65.5 110q-34 23 -68 35t-73 12q-46 0 -73.5 -21.5t-27.5 -51.5q0 -15 11 -33q12 -22 12 -41q0 -33 -22 -52.5
t-57 -19.5q-36 0 -58.5 28.5t-22.5 69.5q0 54 31.5 98t85.5 69t121 25q60 0 108 -17t92 -48q96 70 221 70q105 0 169.5 -41t64.5 -111q0 -66 -51.5 -104.5t-125.5 -38.5q-66 0 -119 23.5t-109 65.5q-19 -43 -19 -94q0 -102 35 -173t91.5 -107t120.5 -36q75 0 117.5 50
t62.5 115l47 -12q-8 -73 -44.5 -135.5zM583 627.5q-41 -18.5 -72 -51.5q51 -42 92.5 -63.5t93.5 -21.5q45 0 70 20.5t25 51.5q0 36 -31.5 59.5t-99.5 23.5q-37 0 -78 -18.5z" />
    <glyph glyph-name="Ccedilla.s1" unicode="&#xe010;" horiz-adv-x="939" 
d="M882.5 125.5q-33.5 -60.5 -93 -99.5t-140.5 -44l-20 -44q12 4 25 4q36 0 58 -17.5t22 -47.5q0 -29 -19.5 -55t-55 -41.5t-80.5 -15.5q-53 0 -89 23t-36 54q0 15 11 27t26 12q19 0 28 -8.5t17 -24.5q9 -18 19.5 -27t32.5 -9q24 0 39 13t15 35q0 14 -9.5 22t-24.5 8
q-19 0 -31 -11l-35 16l38 88q-95 10 -164.5 59.5t-107 130.5t-37.5 182q0 70 23.5 131t65.5 110q-34 23 -68 35t-73 12q-46 0 -73.5 -21.5t-27.5 -51.5q0 -15 11 -33q12 -22 12 -41q0 -33 -22 -52.5t-57 -19.5q-36 0 -58.5 28.5t-22.5 69.5q0 54 31.5 98t85.5 69t121 25
q60 0 108 -17t92 -48q96 70 221 70q105 0 169.5 -41t64.5 -111q0 -66 -51.5 -104.5t-125.5 -38.5q-66 0 -119 23.5t-109 65.5q-19 -43 -19 -94q0 -102 35 -173t91.5 -107t120.5 -36q75 0 117.5 50t62.5 115l47 -12q-8 -70 -41.5 -130.5zM583 627.5q-41 -18.5 -72 -51.5
q51 -42 92.5 -63.5t93.5 -21.5q45 0 70 20.5t25 51.5q0 36 -31.5 59.5t-99.5 23.5q-37 0 -78 -18.5z" />
    <glyph glyph-name="Ccircumflex.s1" unicode="&#xe011;" horiz-adv-x="939" 
d="M424 777l164 143l163 -143l-24 -40l-139 59l-139 -59zM879.5 120.5q-36.5 -62.5 -101.5 -101t-153 -38.5q-108 0 -188 47.5t-123 132.5t-43 194q0 70 23.5 131t65.5 110q-34 23 -68 35t-73 12q-46 0 -73.5 -21.5t-27.5 -51.5q0 -15 11 -33q12 -22 12 -41q0 -33 -22 -52.5
t-57 -19.5q-36 0 -58.5 28.5t-22.5 69.5q0 54 31.5 98t85.5 69t121 25q60 0 108 -17t92 -48q96 70 221 70q105 0 169.5 -41t64.5 -111q0 -66 -51.5 -104.5t-125.5 -38.5q-66 0 -119 23.5t-109 65.5q-19 -43 -19 -94q0 -102 35 -173t91.5 -107t120.5 -36q75 0 117.5 50
t62.5 115l47 -12q-8 -73 -44.5 -135.5zM583 627.5q-41 -18.5 -72 -51.5q51 -42 92.5 -63.5t93.5 -21.5q45 0 70 20.5t25 51.5q0 36 -31.5 59.5t-99.5 23.5q-37 0 -78 -18.5z" />
    <glyph glyph-name="Cdotaccent.s1" unicode="&#xe012;" horiz-adv-x="939" 
d="M529.5 803q-21.5 22 -21.5 51q0 31 21.5 53.5t57.5 22.5q37 0 58.5 -22.5t21.5 -53.5q0 -29 -21.5 -51t-58.5 -22q-36 0 -57.5 22zM879.5 120.5q-36.5 -62.5 -101.5 -101t-153 -38.5q-108 0 -188 47.5t-123 132.5t-43 194q0 70 23.5 131t65.5 110q-34 23 -68 35t-73 12
q-46 0 -73.5 -21.5t-27.5 -51.5q0 -15 11 -33q12 -22 12 -41q0 -33 -22 -52.5t-57 -19.5q-36 0 -58.5 28.5t-22.5 69.5q0 54 31.5 98t85.5 69t121 25q60 0 108 -17t92 -48q96 70 221 70q105 0 169.5 -41t64.5 -111q0 -66 -51.5 -104.5t-125.5 -38.5q-66 0 -119 23.5
t-109 65.5q-19 -43 -19 -94q0 -102 35 -173t91.5 -107t120.5 -36q75 0 117.5 50t62.5 115l47 -12q-8 -73 -44.5 -135.5zM583 627.5q-41 -18.5 -72 -51.5q51 -42 92.5 -63.5t93.5 -21.5q45 0 70 20.5t25 51.5q0 36 -31.5 59.5t-99.5 23.5q-37 0 -78 -18.5z" />
    <glyph glyph-name="D.s1" unicode="&#xe013;" horiz-adv-x="975" 
d="M758.5 658q86.5 -42 136.5 -120t50 -181q0 -117 -46.5 -197.5t-126.5 -120t-182 -39.5h-331l-8 39q24 7 38 29.5t14 58.5v502q-8 2 -48.5 10t-64.5 8q-36 0 -56.5 -13.5t-20.5 -35.5q0 -12 4 -20.5t13 -21.5q11 -14 16.5 -26t5.5 -30q0 -31 -22.5 -52.5t-57.5 -21.5
q-38 0 -64.5 30t-26.5 70q0 54 26.5 97.5t83.5 69.5t143 26q44 0 96 -7q49 -6 93 -9t124 -3h18q107 0 193.5 -42zM680.5 113q40.5 37 59.5 93.5t19 116.5q0 81 -25.5 149.5t-78 110t-129.5 41.5l-35 -1v-539q43 -8 90 -8q59 0 99.5 37z" />
    <glyph glyph-name="Dcaron.s1" unicode="&#xe014;" horiz-adv-x="975" 
d="M392 882l24 40l140 -58l138 58l25 -40l-163 -143zM758.5 658q86.5 -42 136.5 -120t50 -181q0 -117 -46.5 -197.5t-126.5 -120t-182 -39.5h-331l-8 39q24 7 38 29.5t14 58.5v502q-8 2 -48.5 10t-64.5 8q-36 0 -56.5 -13.5t-20.5 -35.5q0 -12 4 -20.5t13 -21.5
q11 -14 16.5 -26t5.5 -30q0 -31 -22.5 -52.5t-57.5 -21.5q-38 0 -64.5 30t-26.5 70q0 54 26.5 97.5t83.5 69.5t143 26q44 0 96 -7q49 -6 93 -9t124 -3h18q107 0 193.5 -42zM680.5 113q40.5 37 59.5 93.5t19 116.5q0 81 -25.5 149.5t-78 110t-129.5 41.5l-35 -1v-539
q43 -8 90 -8q59 0 99.5 37z" />
    <glyph glyph-name="Dcroat.s1" unicode="&#xe015;" horiz-adv-x="1011" 
d="M758.5 658q86.5 -42 136.5 -120t50 -181q0 -117 -46.5 -197.5t-126.5 -120t-182 -39.5h-331l-8 39q24 7 38 29.5t14 58.5v180h-98v86h98v236q-8 2 -48.5 10t-64.5 8q-36 0 -56.5 -13.5t-20.5 -35.5q0 -12 4 -20.5t13 -21.5q11 -14 16.5 -26t5.5 -30q0 -31 -22.5 -52.5
t-57.5 -21.5q-38 0 -64.5 30t-26.5 70q0 54 26.5 97.5t83.5 69.5t143 26q44 0 96 -7q49 -6 93 -9t124 -3h18q107 0 193.5 -42zM680.5 113q40.5 37 59.5 93.5t19 116.5q0 81 -25.5 149.5t-78 110t-129.5 41.5l-35 -1v-230h109l1 -86h-110v-223q43 -8 90 -8q59 0 99.5 37z" />
    <glyph glyph-name="E.s1" unicode="&#xe016;" 
d="M843 -19h-14q-15 8 -63.5 13.5t-82.5 5.5h-401l-8 39q23 7 37 29.5t14 58.5v502q-106 18 -134 18q-36 0 -56.5 -13.5t-20.5 -35.5q0 -12 4 -20.5t13 -21.5q11 -14 16.5 -26t5.5 -30q0 -31 -22.5 -52.5t-57.5 -21.5q-38 0 -65 30t-27 70q0 54 26.5 97.5t83.5 69.5t143 26
q45 0 96 -7q51 -6 94 -9t124 -3h283l39 -175l-41 -15q-23 48 -80.5 81t-145.5 33q-43 0 -90 -5v-224h159q35 0 58 14t29 38l41 -8l-1 -165l-40 -8q-6 24 -28.5 38t-58.5 14h-159v-232q76 -10 112 -10q79 0 141 38.5t98 93.5l41 -20z" />
    <glyph glyph-name="Ebreve.s1" unicode="&#xe017;" 
d="M481.5 800.5q-40.5 28.5 -57.5 73.5l50 29q10 -24 39.5 -38.5t66.5 -14.5q38 0 68 14t40 37l49 -27q-17 -45 -57.5 -73.5t-99.5 -28.5q-58 0 -98.5 28.5zM843 -19h-14q-15 8 -63.5 13.5t-82.5 5.5h-401l-8 39q23 7 37 29.5t14 58.5v502q-95 18 -134 18q-36 0 -56.5 -13.5
t-20.5 -35.5q0 -12 4 -20.5t13 -21.5q11 -14 16.5 -26t5.5 -30q0 -31 -22.5 -52.5t-57.5 -21.5q-38 0 -65 30t-27 70q0 54 26.5 97.5t83.5 69.5t143 26q45 0 96 -7q51 -6 94 -9t124 -3h283l39 -175l-41 -15q-23 48 -80.5 81t-145.5 33q-43 0 -90 -5v-224h159q35 0 58 14
t29 38l41 -8l-1 -165l-40 -8q-6 24 -28.5 38t-58.5 14h-159v-232q76 -10 112 -10q79 0 141 38.5t98 93.5l41 -20z" />
    <glyph glyph-name="Ecaron.s1" unicode="&#xe018;" 
d="M417 882l24 40l140 -58l138 58l25 -40l-163 -143zM843 -19h-14q-15 8 -63.5 13.5t-82.5 5.5h-401l-8 39q23 7 37 29.5t14 58.5v502q-106 18 -134 18q-36 0 -56.5 -13.5t-20.5 -35.5q0 -12 4 -20.5t13 -21.5q11 -14 16.5 -26t5.5 -30q0 -31 -22.5 -52.5t-57.5 -21.5
q-38 0 -65 30t-27 70q0 54 26.5 97.5t83.5 69.5t143 26q45 0 96 -7q51 -6 94 -9t124 -3h283l39 -175l-41 -15q-23 48 -80.5 81t-145.5 33q-43 0 -90 -5v-224h159q35 0 58 14t29 38l41 -8l-1 -165l-40 -8q-6 24 -28.5 38t-58.5 14h-159v-232q76 -10 112 -10q79 0 141 38.5
t98 93.5l41 -20z" />
    <glyph glyph-name="Edotaccent.s1" unicode="&#xe019;" 
d="M514.5 803q-21.5 22 -21.5 51q0 31 21.5 53.5t57.5 22.5q37 0 58.5 -22.5t21.5 -53.5q0 -29 -21.5 -51t-58.5 -22q-36 0 -57.5 22zM843 -19h-14q-15 8 -63.5 13.5t-82.5 5.5h-401l-8 39q23 7 37 29.5t14 58.5v502q-106 18 -134 18q-36 0 -56.5 -13.5t-20.5 -35.5
q0 -12 4 -20.5t13 -21.5q11 -14 16.5 -26t5.5 -30q0 -31 -22.5 -52.5t-57.5 -21.5q-38 0 -65 30t-27 70q0 54 26.5 97.5t83.5 69.5t143 26q45 0 96 -7q51 -6 94 -9t124 -3h283l39 -175l-41 -15q-23 48 -80.5 81t-145.5 33q-43 0 -90 -5v-224h159q35 0 58 14t29 38l41 -8
l-1 -165l-40 -8q-6 24 -28.5 38t-58.5 14h-159v-232q76 -10 112 -10q79 0 141 38.5t98 93.5l41 -20z" />
    <glyph glyph-name="Emacron.s1" unicode="&#xe01a;" 
d="M426 788v77h309v-77h-309zM843 -19h-14q-15 8 -63.5 13.5t-82.5 5.5h-401l-8 39q23 7 37 29.5t14 58.5v502q-106 18 -134 18q-36 0 -56.5 -13.5t-20.5 -35.5q0 -12 4 -20.5t13 -21.5q11 -14 16.5 -26t5.5 -30q0 -31 -22.5 -52.5t-57.5 -21.5q-38 0 -65 30t-27 70
q0 54 26.5 97.5t83.5 69.5t143 26q45 0 96 -7q51 -6 94 -9t124 -3h283l39 -175l-41 -15q-23 48 -80.5 81t-145.5 33q-43 0 -90 -5v-224h159q35 0 58 14t29 38l41 -8l-1 -165l-40 -8q-6 24 -28.5 38t-58.5 14h-159v-232q76 -10 112 -10q79 0 141 38.5t98 93.5l41 -20z" />
    <glyph glyph-name="Eogonek.s1" unicode="&#xe01b;" 
d="M884 -200q-32 -20 -78 -20q-57 0 -90.5 30.5t-33.5 76.5q0 67 57 113h-457l-8 39q23 7 37 29.5t14 58.5v502q-106 18 -134 18q-36 0 -56.5 -13.5t-20.5 -35.5q0 -12 4 -20.5t13 -21.5q11 -14 16.5 -26t5.5 -30q0 -31 -22.5 -52.5t-57.5 -21.5q-38 0 -65 30t-27 70
q0 54 26.5 97.5t83.5 69.5t143 26q45 0 96 -7q51 -6 94 -9t124 -3h283l39 -175l-41 -15q-23 48 -80.5 81t-145.5 33q-43 0 -90 -5v-224h159q35 0 58 14t29 38l41 -8l-1 -165l-40 -8q-6 24 -28.5 38t-58.5 14h-159v-232q70 -11 112 -11q79 0 141 38.5t98 93.5l41 -19
l-56 -188q-29 -20 -45.5 -46t-16.5 -56q0 -21 14 -35t34 -14q36 0 60 38l46 -24q-25 -43 -57 -63z" />
    <glyph glyph-name="F.s1" unicode="&#xe01c;" horiz-adv-x="872" 
d="M829 510q-23 48 -80.5 81t-145.5 33q-54 0 -99 -6v-234h117q35 0 58 14t30 38l39 -8v-164l-39 -8q-7 24 -30 38t-58 14h-117v-272q0 -140 -74.5 -202.5t-190.5 -62.5q-84 0 -125.5 31t-41.5 79q0 34 23 56t56 22q38 0 54.5 -17t29.5 -47q7 -19 14 -27.5t19 -8.5
q25 0 37 33.5t12 103.5l-1 630l-30 6q-71 15 -95 15q-36 0 -56.5 -13.5t-20.5 -35.5q0 -12 4.5 -21t13.5 -21q11 -16 16 -27.5t5 -28.5q0 -31 -22.5 -52.5t-58.5 -21.5q-38 0 -64.5 30t-26.5 70q0 54 26.5 97.5t83.5 69.5t143 26q44 0 97 -7q49 -6 92.5 -9t123.5 -3h284
l39 -175z" />
    <glyph glyph-name="G.s1" unicode="&#xe01d;" horiz-adv-x="981" 
d="M932 296q-14 -23 -14 -58v-200q0 -94 -44.5 -153t-113.5 -84t-147 -25q-72 0 -123.5 16.5t-78.5 45t-27 64.5q0 23 15.5 44t51.5 21q27 0 39.5 -12t25.5 -37q11 -21 21.5 -34t31.5 -22.5t56 -9.5q45 0 74.5 39t29.5 107v5q-58 -23 -128 -23q-98 0 -172.5 45t-116 126.5
t-41.5 187.5q0 76 24 141t68 115q-35 23 -69.5 35.5t-73.5 12.5q-47 0 -74.5 -22t-27.5 -52q0 -9 3 -17t8 -16q12 -22 12 -40q0 -33 -22 -52.5t-56 -19.5q-37 0 -59.5 28.5t-22.5 69.5q0 54 31.5 98t86 69t121.5 25q59 0 107 -17.5t94 -48.5q46 35 102 53t117 18
q105 0 169 -41t64 -111q0 -66 -51 -104.5t-124 -38.5q-65 0 -117.5 23t-108.5 64q-22 -49 -22 -109q0 -97 33.5 -165t85 -101.5t104.5 -33.5q29 0 56 8l1 128q0 35 -13.5 58t-37.5 29l8 40h275l8 -40q-24 -6 -38 -29zM585 627q-40 -19 -71 -53q50 -41 91.5 -62t92.5 -21
q45 0 70 20t25 52q0 36 -31.5 59.5t-99.5 23.5q-37 0 -77 -19z" />
    <glyph glyph-name="Gbreve.s1" unicode="&#xe01e;" horiz-adv-x="981" 
d="M521.5 800.5q-40.5 28.5 -57.5 73.5l50 29q10 -24 39.5 -38.5t66.5 -14.5q38 0 68 14t40 37l49 -27q-17 -45 -57.5 -73.5t-99.5 -28.5q-58 0 -98.5 28.5zM932 296q-14 -23 -14 -58v-200q0 -94 -44.5 -153t-113.5 -84t-147 -25q-72 0 -123.5 16.5t-78.5 45t-27 64.5
q0 23 15.5 44t51.5 21q27 0 39.5 -12t25.5 -37q11 -21 21.5 -34t31.5 -22.5t56 -9.5q45 0 74.5 39t29.5 107v5q-58 -23 -128 -23q-98 0 -172.5 45t-116 126.5t-41.5 187.5q0 76 24 141t68 115q-35 23 -69.5 35.5t-73.5 12.5q-47 0 -74.5 -22t-27.5 -52q0 -9 3 -17t8 -16
q12 -22 12 -40q0 -33 -22 -52.5t-56 -19.5q-37 0 -59.5 28.5t-22.5 69.5q0 54 31.5 98t86 69t121.5 25q59 0 107 -17.5t94 -48.5q46 35 102 53t117 18q105 0 169 -41t64 -111q0 -66 -51 -104.5t-124 -38.5q-65 0 -117.5 23t-108.5 64q-22 -49 -22 -109q0 -97 33.5 -165
t85 -101.5t104.5 -33.5q29 0 56 8l1 128q0 35 -13.5 58t-37.5 29l8 40h275l8 -40q-24 -6 -38 -29zM585 627q-40 -19 -71 -53q50 -41 91.5 -62t92.5 -21q45 0 70 20t25 52q0 36 -31.5 59.5t-99.5 23.5q-37 0 -77 -19z" />
    <glyph glyph-name="Gcircumflex.s1" unicode="&#xe01f;" horiz-adv-x="981" 
d="M455 777l164 143l163 -143l-24 -40l-139 59l-139 -59zM932 296q-14 -23 -14 -58v-200q0 -94 -44.5 -153t-113.5 -84t-147 -25q-72 0 -123.5 16.5t-78.5 45t-27 64.5q0 23 15.5 44t51.5 21q27 0 39.5 -12t25.5 -37q11 -21 21.5 -34t31.5 -22.5t56 -9.5q45 0 74.5 39
t29.5 107v5q-58 -23 -128 -23q-98 0 -172.5 45t-116 126.5t-41.5 187.5q0 76 24 141t68 115q-35 23 -69.5 35.5t-73.5 12.5q-47 0 -74.5 -22t-27.5 -52q0 -9 3 -17t8 -16q12 -22 12 -40q0 -33 -22 -52.5t-56 -19.5q-37 0 -59.5 28.5t-22.5 69.5q0 54 31.5 98t86 69t121.5 25
q59 0 107 -17.5t94 -48.5q46 35 102 53t117 18q105 0 169 -41t64 -111q0 -66 -51 -104.5t-124 -38.5q-65 0 -117.5 23t-108.5 64q-22 -49 -22 -109q0 -97 33.5 -165t85 -101.5t104.5 -33.5q29 0 56 8l1 128q0 35 -13.5 58t-37.5 29l8 40h275l8 -40q-24 -6 -38 -29zM585 627
q-40 -19 -71 -53q50 -41 91.5 -62t92.5 -21q45 0 70 20t25 52q0 36 -31.5 59.5t-99.5 23.5q-37 0 -77 -19z" />
    <glyph glyph-name="uni0122.s1" unicode="&#xe020;" horiz-adv-x="982" 
d="M932 296q-14 -23 -14 -58v-196q0 -94 -44.5 -153t-113.5 -84t-147 -25q-72 0 -123.5 16.5t-78.5 45t-27 64.5q0 23 15.5 44t51.5 21q27 0 39.5 -12t25.5 -37q11 -21 21.5 -34t31.5 -22.5t56 -9.5q45 0 74.5 39t29.5 107v1q-58 -23 -128 -23q-98 0 -172.5 45t-116 126.5
t-41.5 187.5q0 76 24 141t68 115q-35 23 -69.5 35.5t-73.5 12.5q-47 0 -74.5 -22t-27.5 -52q0 -9 3 -17t8 -16q12 -22 12 -40q0 -33 -22 -52.5t-56 -19.5q-37 0 -59.5 28.5t-22.5 69.5q0 54 31.5 98t86 69t121.5 25q59 0 107 -17.5t94 -48.5q46 35 102 53t117 18
q105 0 169 -41t64 -111q0 -66 -51 -104.5t-124 -38.5q-65 0 -117.5 23t-108.5 64q-22 -49 -22 -109q0 -97 33.5 -165t85 -101.5t104.5 -33.5q29 0 56 8l1 128q0 35 -13.5 58t-37.5 29l8 40h275l8 -40q-24 -6 -38 -29zM585 627q-40 -19 -71 -53q50 -41 91.5 -62t92.5 -21
q45 0 70 20t25 52q0 36 -31.5 59.5t-99.5 23.5q-37 0 -77 -19zM706 -296q32 -35 32 -95q0 -79 -47.5 -150t-122.5 -109l-36 51q44 30 70.5 67t41.5 86l-3 4q-17 -10 -32 -10q-41 0 -69 26.5t-28 69.5q0 42 33 68.5t79 26.5q50 0 82 -35z" />
    <glyph glyph-name="Gdotaccent.s1" unicode="&#xe021;" horiz-adv-x="981" 
d="M560.5 803q-21.5 22 -21.5 51q0 31 21.5 53.5t57.5 22.5q37 0 58.5 -22.5t21.5 -53.5q0 -29 -21.5 -51t-58.5 -22q-36 0 -57.5 22zM932 296q-14 -23 -14 -58v-200q0 -94 -44.5 -153t-113.5 -84t-147 -25q-72 0 -123.5 16.5t-78.5 45t-27 64.5q0 23 15.5 44t51.5 21
q27 0 39.5 -12t25.5 -37q11 -21 21.5 -34t31.5 -22.5t56 -9.5q45 0 74.5 39t29.5 107v5q-58 -23 -128 -23q-98 0 -172.5 45t-116 126.5t-41.5 187.5q0 76 24 141t68 115q-35 23 -69.5 35.5t-73.5 12.5q-47 0 -74.5 -22t-27.5 -52q0 -9 3 -17t8 -16q12 -22 12 -40
q0 -33 -22 -52.5t-56 -19.5q-37 0 -59.5 28.5t-22.5 69.5q0 54 31.5 98t86 69t121.5 25q59 0 107 -17.5t94 -48.5q46 35 102 53t117 18q105 0 169 -41t64 -111q0 -66 -51 -104.5t-124 -38.5q-65 0 -117.5 23t-108.5 64q-22 -49 -22 -109q0 -97 33.5 -165t85 -101.5
t104.5 -33.5q29 0 56 8l1 128q0 35 -13.5 58t-37.5 29l8 40h275l8 -40q-24 -6 -38 -29zM585 627q-40 -19 -71 -53q50 -41 91.5 -62t92.5 -21q45 0 70 20t25 52q0 36 -31.5 59.5t-99.5 23.5q-37 0 -77 -19z" />
    <glyph glyph-name="H.s1" unicode="&#xe022;" horiz-adv-x="1026" 
d="M970.5 68.5q13.5 -22.5 37.5 -29.5l-8 -39h-275l-8 39q24 7 38 29.5t14 58.5v185h-256v-185q0 -36 13.5 -58.5t37.5 -29.5l-8 -39h-274l-8 39q23 7 37 29.5t14 58.5v497q-19 3 -32 7q-9 2 -45 9t-57 7q-36 0 -56.5 -13.5t-20.5 -35.5q0 -12 4 -20.5t13 -21.5
q11 -14 16.5 -26t5.5 -30q0 -31 -22.5 -52.5t-57.5 -21.5q-38 0 -65 30t-27 70q0 54 26.5 97.5t83.5 69.5t143 26q45 0 96 -7q51 -6 94 -9t123 -3h9l8 -39q-24 -7 -37.5 -29.5t-13.5 -58.5v-175h256v175q0 36 -14 58.5t-38 29.5l8 39h274l9 -39q-24 -7 -37.5 -29.5
t-13.5 -58.5v-446q0 -36 13.5 -58.5z" />
    <glyph glyph-name="Hbar.s1" unicode="&#xe023;" horiz-adv-x="1052" 
d="M970.5 68.5q13.5 -22.5 37.5 -29.5l-8 -39h-275l-8 39q24 7 38 29.5t14 58.5v185h-256v-185q0 -36 13.5 -58.5t37.5 -29.5l-8 -39h-274l-8 39q23 7 37 29.5t14 58.5v348h-91v56h91v93q-19 3 -32 7q-9 2 -45 9t-57 7q-36 0 -56.5 -13.5t-20.5 -35.5q0 -12 4 -20.5
t13 -21.5q11 -14 16.5 -26t5.5 -30q0 -31 -22.5 -52.5t-57.5 -21.5q-38 0 -65 30t-27 70q0 54 26.5 97.5t83.5 69.5t143 26q45 0 96 -7q51 -6 94 -9t123 -3h9l8 -39q-24 -7 -37.5 -29.5t-13.5 -58.5v-42h256v42q0 36 -14 58.5t-38 29.5l8 39h274l9 -39q-24 -7 -37.5 -29.5
t-13.5 -58.5v-42h82l2 -56h-84v-348q0 -36 13.5 -58.5zM769 475h-256v-77h256v77z" />
    <glyph glyph-name="Hcircumflex.s1" unicode="&#xe024;" horiz-adv-x="1026" 
d="M477 777l164 143l163 -143l-24 -40l-139 59l-139 -59zM970.5 68.5q13.5 -22.5 37.5 -29.5l-8 -39h-275l-8 39q24 7 38 29.5t14 58.5v185h-256v-185q0 -36 13.5 -58.5t37.5 -29.5l-8 -39h-274l-8 39q23 7 37 29.5t14 58.5v497q-19 3 -32 7q-9 2 -45 9t-57 7
q-36 0 -56.5 -13.5t-20.5 -35.5q0 -12 4 -20.5t13 -21.5q11 -14 16.5 -26t5.5 -30q0 -31 -22.5 -52.5t-57.5 -21.5q-38 0 -65 30t-27 70q0 54 26.5 97.5t83.5 69.5t143 26q45 0 96 -7q51 -6 94 -9t123 -3h9l8 -39q-24 -7 -37.5 -29.5t-13.5 -58.5v-175h256v175
q0 36 -14 58.5t-38 29.5l8 39h274l9 -39q-24 -7 -37.5 -29.5t-13.5 -58.5v-446q0 -36 13.5 -58.5z" />
    <glyph glyph-name="I.s1" unicode="&#xe025;" horiz-adv-x="582" 
d="M526 68.5q14 -22.5 38 -29.5l-8 -39h-275l-8 39q24 7 37.5 29.5t13.5 58.5v497l-28 6q-79 17 -106 17q-35 0 -56 -14t-21 -35q0 -12 4 -20t14 -22q11 -14 16.5 -26t5.5 -30q0 -31 -23 -52.5t-58 -21.5q-38 0 -64.5 30t-26.5 70q0 54 26.5 97.5t83.5 69.5t143 26
q45 0 96 -7q51 -6 94 -9t123 -3h9l8 -39q-24 -7 -38 -29.5t-14 -58.5v-446q0 -36 14 -58.5z" />
    <glyph glyph-name="IJ.s1" unicode="&#xe026;" horiz-adv-x="922" 
d="M281 0l-8 39q24 7 37.5 29.5t13.5 58.5v497l-28 6q-79 17 -106 17q-35 0 -56 -14t-21 -35q0 -12 4 -20t14 -22q11 -14 16.5 -26t5.5 -30q0 -31 -23 -52.5t-58 -21.5q-38 0 -64.5 30t-26.5 70q0 54 26.5 97.5t83.5 69.5t143 26q45 0 96 -7q51 -6 94 -9t123 -3h9l8 -39
q-24 -7 -38 -29.5t-14 -58.5v-446q0 -36 14 -58.5t38 -29.5l-8 -39h-275zM871 631.5q-14 -22.5 -14 -58.5v-538q0 -140 -73.5 -202.5t-189.5 -62.5q-84 0 -126 31t-42 79q0 34 22.5 55.5t55.5 21.5q36 0 53 -16t32 -46q8 -18 16 -27.5t21 -9.5q23 0 33 33t10 104v578
q0 36 -13.5 58.5t-37.5 29.5l9 39h273l8 -39q-23 -7 -37 -29.5z" />
    <glyph glyph-name="Idotaccent.s1" unicode="&#xe027;" horiz-adv-x="583" 
d="M360.5 803q-21.5 22 -21.5 51q0 31 21.5 53.5t57.5 22.5q37 0 58.5 -22.5t21.5 -53.5q0 -29 -21.5 -51t-58.5 -22q-36 0 -57.5 22zM526 68.5q14 -22.5 38 -29.5l-8 -39h-275l-8 39q24 7 37.5 29.5t13.5 58.5v497l-28 6q-79 17 -106 17q-35 0 -56 -14t-21 -35q0 -12 4 -20
t14 -22q11 -14 16.5 -26t5.5 -30q0 -31 -23 -52.5t-58 -21.5q-38 0 -64.5 30t-26.5 70q0 54 26.5 97.5t83.5 69.5t143 26q45 0 96 -7q51 -6 94 -9t123 -3h9l8 -39q-24 -7 -38 -29.5t-14 -58.5v-446q0 -36 14 -58.5z" />
    <glyph glyph-name="Imacron.s1" unicode="&#xe028;" horiz-adv-x="583" 
d="M573 788h-309v77h309v-77zM526 631.5q-14 -22.5 -14 -58.5v-446q0 -36 14 -58.5t38 -29.5l-8 -39h-275l-8 39q24 7 37.5 29.5t13.5 58.5v497l-28 6q-79 17 -106 17q-35 0 -56 -14t-21 -35q0 -12 4 -20t14 -22q11 -14 16.5 -26t5.5 -30q0 -31 -23 -52.5t-58 -21.5
q-38 0 -64.5 30t-26.5 70q0 54 26.5 97.5t83.5 69.5t143 26q45 0 96 -7q51 -6 94 -9t123 -3h9l8 -39q-24 -7 -38 -29.5z" />
    </font>
</defs>
</svg>
