<?xml version="1.0" standalone="no"?>
<!DOCTYPE svg PUBLIC "-//W3C//DTD SVG 1.1//EN" "http://www.w3.org/Graphics/SVG/1.1/DTD/svg11.dtd" >
<svg xmlns="http://www.w3.org/2000/svg" xmlns:xlink="http://www.w3.org/1999/xlink" version="1.1">
<metadata>
Created by FontForge 20170731 at Sat May  4 12:43:57 2019
 By Aleksey,,,
Copyright (c) 1949 by Studio Sun. All rights reserved.
</metadata>
<defs>
<font id="Tropiline-Bold" horiz-adv-x="278" >
  <font-face 
    font-family="Tropiline"
    font-weight="700"
    font-stretch="normal"
    units-per-em="1000"
    panose-1="0 0 0 0 0 0 0 0 0 0"
    ascent="750"
    descent="-250"
    x-height="522"
    cap-height="700"
    bbox="-286 -639 1446 1098"
    underline-thickness="50"
    underline-position="-150"
    unicode-range="U+0020-FB00"
  />
<missing-glyph horiz-adv-x="661" 
d="M567 700v-700h-473v700h473zM481 631h-300v-562h300v562z" />
    <glyph glyph-name="T_h" unicode="Th" horiz-adv-x="1246" 
d="M1199 60q16 -20 39 -26l-6 -34h-224l-6 34q20 5 32 21.5t12 43.5q0 8 -1 13l-23 248q-4 54 -31 83t-66 30q-44 0 -76 -29.5t-32 -75.5v-256q0 -32 14 -52t37 -26l-6 -34h-224l-6 34q23 6 37 26t14 52v526q-39 -14 -81 -21.5t-79 -7.5q-25 0 -37 1v-498q0 -33 13.5 -53
t36.5 -25l-6 -34h-246l-6 34q23 6 37 26t14 52v528q-50 15 -77.5 21t-57.5 6q-73 0 -73 -47q0 -17 16 -41q9 -15 13.5 -26.5t4.5 -26.5q0 -28 -19.5 -46.5t-49.5 -18.5q-34 0 -57 27t-23 63q1 47 26.5 87.5t74.5 65t116 24.5q46 0 83 -3.5t99 -11.5q103 -15 176 -15
q60 0 125.5 19.5t113.5 54.5l12 -5q-15 -59 -15 -171v-121h6q22 30 57.5 48.5t80.5 18.5q87 0 139.5 -54t61.5 -162l18 -214q3 -32 19 -52z" />
    <glyph glyph-name="f_t" unicode="ft" horiz-adv-x="695" 
d="M548 122q0 -74 59 -74q14 0 31 3.5t29 8.5l14 -56q-21 -9 -57.5 -16t-63.5 -7q-73 0 -110.5 33.5t-37.5 110.5v329h-159v-343q0 -32 14 -52.5t37 -25.5l-6 -34h-224l-6 34q23 5 37 25.5t14 52.5v343h-98v68h95q-2 16 -10 44q-12 46 -12 72q0 40 19.5 74t56 54t86.5 20
q59 0 100 -32t41 -79q0 -27 -14.5 -44.5t-41.5 -17.5q-29 0 -41 14t-21 42q-8 25 -16.5 36.5t-29.5 11.5q-19 0 -30 -13.5t-11 -36.5q0 -20 8 -41.5t23 -54.5q16 -34 21 -49h134q45 23 76 59t52 88h42v-148h135v-67h-135v-332z" />
    <glyph glyph-name="f_f" unicode="ff" horiz-adv-x="737" 
d="M548 625.5q8 -21.5 23 -54.5q16 -34 21 -49h150v-67h-141v-344q0 -32 14 -52.5t37 -25.5l-6 -33h-224l-6 33q23 5 37 25.5t14 52.5v344h-214v-344q0 -32 14 -52.5t37 -25.5l-6 -33h-224l-6 33q23 5 37 25.5t14 52.5v344h-98v67h95q-2 16 -10 44q-12 46 -12 72
q0 40 19.5 74t56 54t86.5 20q59 0 100 -32t41 -79q0 -27 -14.5 -44.5t-41.5 -17.5q-29 0 -41 14t-21 42q-8 25 -16.5 36.5t-29.5 11.5q-19 0 -30 -13.5t-11 -36.5q0 -20 8 -41.5t23 -54.5q16 -34 21 -49h220q-2 16 -10 44q-12 46 -12 72q0 40 19.5 74t56 54t86.5 20
q59 0 100 -32t41 -79q0 -27 -14.5 -44.5t-41.5 -17.5q-29 0 -41 14t-21 42q-8 25 -16.5 36.5t-29.5 11.5q-19 0 -30 -13.5t-11 -36.5q0 -20 8 -41.5z" />
    <glyph glyph-name=".notdef" horiz-adv-x="661" 
d="M567 700v-700h-473v700h473zM481 631h-300v-562h300v562z" />
    <glyph glyph-name=".null" horiz-adv-x="0" 
 />
    <glyph glyph-name="nonmarkingreturn" unicode="&#xe001;" horiz-adv-x="500" 
 />
    <glyph glyph-name="space" unicode=" " horiz-adv-x="255" 
 />
    <glyph glyph-name="exclam" unicode="!" horiz-adv-x="286" 
d="M92.5 365q-8.5 56 -22.5 114q-10 44 -15 72.5t-5 62.5q0 56 27 80.5t66 24.5t66.5 -25t27.5 -82q0 -34 -5 -63t-15 -71q-15 -61 -23.5 -115.5t-11.5 -136.5h-78q-3 83 -11.5 139zM76 6.5q-27 25.5 -27 66.5q0 40 27 65.5t65 25.5q39 0 66 -25.5t27 -65.5q0 -41 -27 -66.5
t-66 -25.5q-38 0 -65 25.5z" />
    <glyph glyph-name="quotedbl" unicode="&#x22;" horiz-adv-x="457" 
d="M73 563q-9 27 -13 45t-4 35q0 34 20.5 55t51.5 21t52 -20.5t21 -54.5q0 -18 -4 -35.5t-13 -46.5q-22 -71 -31 -133h-49q-9 59 -31 134zM292 496.5q-7 28.5 -19 66.5q-9 27 -13 45t-4 35q0 34 21 55t52 21t52 -20.5t21 -54.5q0 -16 -4 -34.5t-8 -31t-5 -17.5
q-12 -38 -19 -66t-13 -66h-48q-6 39 -13 67.5z" />
    <glyph glyph-name="numbersign" unicode="#" horiz-adv-x="663" 
d="M9 193v54h141l68 206h-133v54h151l64 193h74l-63 -193h145l63 193h75l-64 -193h124v-54h-142l-67 -206h133v-54h-153l-62 -193h-74l62 193h-145l-62 -193h-74l62 193h-123zM437 453h-145l-67 -206h145z" />
    <glyph glyph-name="dollar" unicode="$" horiz-adv-x="643" 
d="M537.5 51q-70.5 -60 -183.5 -69v-144h-69v144q-83 4 -141 27t-87 56.5t-29 69.5q0 26 18.5 44t46.5 18q29 0 42.5 -14.5t29.5 -46.5q13 -30 28 -49.5t45 -33.5t80 -14q61 0 101.5 30.5t40.5 78.5q0 51 -45 84t-134 59q-108 31 -169 81.5t-61 144.5q0 85 64.5 137.5
t169.5 62.5v125h69v-124q60 -3 110 -21t79.5 -47.5t29.5 -64.5q0 -26 -15 -41.5t-41 -15.5q-23 0 -35 12.5t-26 38.5q-12 25 -24.5 41.5t-38 28t-67.5 11.5q-55 0 -92.5 -29.5t-37.5 -71.5q0 -47 42 -75.5t127 -52.5q115 -31 179 -80.5t64 -143.5q0 -96 -70.5 -156z" />
    <glyph glyph-name="percent" unicode="%" horiz-adv-x="862" 
d="M116 362q-44 25 -68.5 68.5t-24.5 97.5q0 56 23.5 99t67 67.5t100.5 24.5q55 0 98.5 -25t68 -68.5t24.5 -98.5q0 -54 -24 -97.5t-66.5 -68t-98.5 -24.5t-100 25zM621 700l-314 -700h-64l313 700h65zM274.5 430.5q22.5 36.5 22.5 95.5q0 61 -23 97t-60 36q-38 0 -60 -35
t-22 -97q0 -59 23 -96t60 -37t59.5 36.5zM550.5 6q-44.5 25 -69 68.5t-24.5 97.5q0 85 52.5 137.5t138.5 52.5q55 0 98.5 -24.5t68 -68t24.5 -98.5q0 -54 -24 -97.5t-66.5 -68t-98.5 -24.5q-55 0 -99.5 25zM708.5 74.5q22.5 36.5 22.5 95.5q0 61 -23 97.5t-60 36.5
q-38 0 -60 -36t-22 -97q0 -59 23 -96t60 -37t59.5 36.5z" />
    <glyph glyph-name="ampersand" unicode="&#x26;" horiz-adv-x="918" 
d="M876.5 229q22.5 -32 22.5 -77q0 -80 -55.5 -125.5t-141.5 -45.5q-101 0 -164 60q-49 -29 -107 -44.5t-120 -15.5q-88 0 -152 32.5t-97 84.5t-33 109q0 82 49.5 143.5t127.5 88.5v6q-34 21 -52.5 52t-18.5 71q0 70 51.5 110.5t139.5 40.5q85 0 138 -41.5t53 -111.5
q0 -50 -28.5 -86t-79.5 -52v-8q46 -18 79 -53t54.5 -73.5t48.5 -97.5q40 69 40 155q0 38 -23 58t-53 27l6 34h223l7 -34q-29 -6 -52 -28.5t-23 -60.5q0 -134 -86 -231q21 -35 43 -53t51 -18q28 0 48.5 17t20.5 45q0 16 -6 27t-17 23q-11 13 -16.5 23.5t-5.5 25.5
q0 24 17.5 39.5t45.5 15.5q43 0 65.5 -32zM265.5 634.5q-22.5 -26.5 -22.5 -71.5q0 -43 23.5 -70.5t59.5 -27.5q37 0 59.5 27t22.5 70q0 44 -23 71.5t-59 27.5q-38 0 -60.5 -26.5zM200.5 138q20.5 -36 59 -57t89.5 -21q77 0 143 37q-17 27 -31.5 56.5t-33.5 73.5
q-31 73 -55 113.5t-61 60.5q-55 -31 -93 -78t-38 -104q0 -45 20.5 -81z" />
    <glyph glyph-name="quotesingle" unicode="'" horiz-adv-x="257" 
d="M73 563q-9 27 -13 45t-4 35q0 34 20.5 55t51.5 21t52 -20.5t21 -54.5q0 -18 -4 -35.5t-13 -46.5q-22 -71 -31 -133h-49q-9 59 -31 134z" />
    <glyph glyph-name="parenleft" unicode="(" horiz-adv-x="346" 
d="M105 -22.5q-82 120.5 -82 281.5t82 282t208 193l26 -31q-55 -40 -98 -108.5t-67.5 -155.5t-24.5 -180q0 -139 53 -259.5t137 -183.5l-25 -31q-127 72 -209 192.5z" />
    <glyph glyph-name="parenright" unicode=")" horiz-adv-x="346" 
d="M144 -0.5q53 120.5 53 259.5q0 93 -24.5 180t-67.5 155.5t-98 108.5l26 31q126 -72 208 -193t82 -282t-82 -281.5t-209 -192.5l-25 31q84 63 137 183.5z" />
    <glyph glyph-name="asterisk" unicode="*" horiz-adv-x="505" 
d="M90 327q0 17 12 33q7 11 20 22t27 22q7 6 23.5 20t31.5 28l-7 21q-27 4 -72 6q-18 1 -35 3t-30 6q-18 6 -28 19t-10 29q0 23 15 38t36 15q10 0 19 -3q22 -7 56 -30q31 -22 64 -39l18 12q-4 24 -16 68q-13 44 -13 68t14.5 39t36.5 15t37 -15t15 -39q0 -21 -12 -64
q-2 -8 -7.5 -29t-9.5 -43l17 -13q19 10 64 39q40 25 57 31q9 3 18 3q22 0 37 -15.5t15 -37.5q0 -16 -10 -29t-28 -19q-13 -4 -30 -6t-36 -3q-46 -2 -73 -6l-6 -20q25 -24 56 -49q14 -11 27 -22t20 -22q12 -16 12 -33q0 -25 -22 -41q-14 -11 -31 -11q-12 0 -23 6t-19 18
q-8 10 -15 25.5t-13 32.5q-14 37 -29 69h-21q-9 -19 -17 -39.5t-12 -28.5q-15 -41 -27 -59q-18 -24 -43 -24q-17 0 -31 11q-22 16 -22 41z" />
    <glyph glyph-name="plus" unicode="+" horiz-adv-x="563" 
d="M9 321v60h240v241h64v-241h242v-60h-242v-243h-64v243h-240z" />
    <glyph glyph-name="comma" unicode="," horiz-adv-x="290" 
d="M219.5 118.5q27.5 -31.5 27.5 -83.5q0 -71 -42 -140t-109 -108l-35 45q81 57 104 154l-2 3q-14 -8 -27 -8q-36 0 -61 24t-25 62q0 37 28.5 60t69.5 23q44 0 71.5 -31.5z" />
    <glyph glyph-name="hyphen" unicode="-" horiz-adv-x="289" 
d="M280 320v-102h-271v102h271z" />
    <glyph glyph-name="period" unicode="." horiz-adv-x="272" 
d="M70 7q-27 26 -27 65q0 40 27 66t66 26t66 -26t27 -66q0 -39 -27 -65t-66 -26t-66 26z" />
    <glyph glyph-name="slash" unicode="/" horiz-adv-x="347" 
d="M347 730l-285 -947h-62l285 947h62z" />
    <glyph glyph-name="zero" unicode="0" horiz-adv-x="638" 
d="M165 27q-64 46 -97 129.5t-33 194.5t33 194t97 128.5t154 45.5t154 -45.5t97 -128.5t33 -194q0 -112 -33 -195t-97 -129t-154 -46t-154 46zM415.5 123q29.5 76 29.5 228q0 151 -29.5 227t-96.5 76q-66 0 -95.5 -76t-29.5 -227t29.5 -227.5t95.5 -76.5q67 0 96.5 76z" />
    <glyph glyph-name="one" unicode="1" horiz-adv-x="511" 
d="M181 112v462h-70l-6 39l186 94h46v-595q0 -61 69 -78l-6 -34h-284l-6 34q71 17 71 78z" />
    <glyph glyph-name="two" unicode="2" horiz-adv-x="617" 
d="M500 -22h-12q-16 11 -48.5 16.5t-67.5 5.5h-299v80q103 80 164 136.5t105 132t44 164.5q0 65 -33 103.5t-91 38.5q-38 0 -72 -19.5t-55.5 -57.5t-23.5 -91l-52 7q2 69 34 120t86.5 78t121.5 27q69 0 123.5 -25t85.5 -72t31 -109q0 -128 -87.5 -219t-236.5 -172v-4h71
q79 0 128 15.5t69 31.5t42 41l36 -16z" />
    <glyph glyph-name="three" unicode="3" horiz-adv-x="594" 
d="M161.5 -5q-49.5 14 -81.5 42t-32 67q0 30 16.5 48.5t46.5 18.5q29 0 43.5 -15t28.5 -46q15 -32 31 -48.5t49 -16.5q62 0 97.5 41.5t35.5 114.5q0 75 -41 120t-115 45h-25v56h26q56 0 86.5 35t30.5 87q0 48 -30 79.5t-85 31.5q-51 0 -87 -37t-41 -103l-48 6
q7 91 68.5 144.5t160.5 53.5q66 0 114 -21.5t72.5 -57.5t24.5 -80q0 -52 -29.5 -91t-85.5 -59v-6q68 -14 113 -64t45 -118t-33.5 -122.5t-98 -86.5t-154.5 -32q-53 0 -102.5 14z" />
    <glyph glyph-name="four" unicode="4" horiz-adv-x="631" 
d="M485 111q0 -34 21 -52t49 -25l-6 -34h-286l-6 34q28 7 49.5 25.5t21.5 51.5v61h-283l-12 46l339 482h113v-467h113l-16 -61h-97v-61zM328 527h-5l-205 -290v-4h210v294z" />
    <glyph glyph-name="five" unicode="5" horiz-adv-x="577" 
d="M412.5 428.5q58.5 -28.5 88 -79t29.5 -114.5q0 -70 -32.5 -128t-95.5 -92t-150 -34q-81 0 -143 29.5t-62 85.5q0 28 17.5 47t42.5 19q33 0 47 -13.5t26 -41.5q9 -20 17.5 -32.5t26.5 -21t48 -8.5q66 0 104.5 40t38.5 106q0 40 -21 73.5t-60.5 53t-93.5 19.5
q-36 0 -73.5 -9t-66.5 -26l-39 10v388h312q35 0 56 5t34 18h12l-20 -143l-329 1v-149q27 12 68.5 18.5t77.5 6.5q82 0 140.5 -28.5z" />
    <glyph glyph-name="six" unicode="6" horiz-adv-x="604" 
d="M473 426q49 -32 72.5 -85t23.5 -117q0 -67 -34.5 -122.5t-95.5 -88t-138 -32.5q-80 0 -140.5 39.5t-93 111t-32.5 166.5q0 139 59 234t159.5 141t225.5 46l2 -51q-100 0 -176.5 -66t-102.5 -201h5q22 25 62 41t83 16q72 0 121 -32zM382.5 88.5q27.5 48.5 27.5 135.5
q0 158 -107 158q-31 0 -63 -19.5t-49 -52.5q-1 -13 -1 -40q0 -117 25.5 -173.5t85.5 -56.5q54 0 81.5 48.5z" />
    <glyph glyph-name="seven" unicode="7" horiz-adv-x="612" 
d="M428.5 445.5q-47.5 -79.5 -75.5 -172t-28 -203.5q0 -45 -24 -67t-59 -22q-36 0 -59 25.5t-23 63.5q0 132 85 266t201 240v4h-115q-79 0 -128.5 -17t-69.5 -34.5t-41 -43.5l-36 17l63 221h12q28 -23 133 -23h288v-77q-76 -98 -123.5 -177.5z" />
    <glyph glyph-name="eight" unicode="8" horiz-adv-x="607" 
d="M157 7q-59 26 -90.5 69t-31.5 93q0 124 132 189v5q-49 31 -75 68.5t-26 99.5q0 48 29.5 91t86 70t133.5 27q71 0 122 -23t77 -61t26 -80q0 -112 -114 -168v-5q46 -23 76.5 -47t50 -60t19.5 -88q0 -59 -34.5 -106t-97.5 -73.5t-146 -26.5q-78 0 -137 26zM443 555
q0 46 -28.5 74t-83.5 28q-52 0 -81 -24t-29 -69q0 -49 32 -80.5t92 -59.5q98 50 98 131zM383 73q34 30 34 75q0 43 -24 74.5t-59 52t-92 46.5q-46 -24 -73.5 -62.5t-27.5 -89.5q0 -55 39 -90.5t106 -35.5q63 0 97 30z" />
    <glyph glyph-name="nine" unicode="9" horiz-adv-x="603" 
d="M443 679.5q60 -39.5 92.5 -111t32.5 -166.5q0 -139 -59 -234t-159.5 -141t-225.5 -46l-2 51q101 0 177.5 66t102.5 201h-5q-22 -25 -62.5 -41t-83.5 -16q-72 0 -120.5 32t-72 85t-23.5 117q0 66 34 122t95 88.5t138 32.5q81 0 141 -39.5zM363 337.5q32 19.5 49 51.5
q1 13 1 41q0 118 -25 174t-86 56q-54 0 -81.5 -48.5t-27.5 -135.5q0 -158 108 -158q30 0 62 19.5z" />
    <glyph glyph-name="colon" unicode=":" horiz-adv-x="272" 
d="M70.5 344q-26.5 26 -26.5 67q0 39 27 64t66 25t65.5 -25.5t26.5 -65.5t-26.5 -65.5t-65.5 -25.5q-40 0 -66.5 26zM70.5 7q-26.5 26 -26.5 67q0 40 27 65t66 25t65.5 -25.5t26.5 -66.5q0 -40 -26.5 -65.5t-65.5 -25.5q-40 0 -66.5 26z" />
    <glyph glyph-name="semicolon" unicode=";" horiz-adv-x="290" 
d="M75 343.5q-27 25.5 -27 65.5t27 65.5t66 25.5t66 -25.5t27 -65.5t-27 -65.5t-66 -25.5t-66 25.5zM219.5 118.5q27.5 -31.5 27.5 -83.5q0 -71 -42 -140t-109 -108l-35 45q81 57 104 154l-2 3q-14 -8 -27 -8q-36 0 -61 24t-25 62q0 37 28.5 60t69.5 23q44 0 71.5 -31.5z
" />
    <glyph glyph-name="less" unicode="&#x3c;" horiz-adv-x="563" 
d="M30 373l503 208v-65l-420 -174v-4l420 -174v-65l-503 209v65z" />
    <glyph glyph-name="equal" unicode="=" horiz-adv-x="546" 
d="M537 479v-60h-528v60h528zM537 281v-59h-528v59h528z" />
    <glyph glyph-name="greater" unicode="&#x3e;" horiz-adv-x="563" 
d="M450 338v4l-421 174v65l504 -208v-65l-504 -209v65z" />
    <glyph glyph-name="question" unicode="?" horiz-adv-x="508" 
d="M179 410q97 0 157.5 15.5t60.5 68.5q0 35 -22.5 72.5t-58.5 62t-75 24.5q-30 0 -45 -12.5t-32 -38.5q-15 -26 -30.5 -39t-46.5 -13q-27 0 -45.5 19.5t-18.5 46.5q0 49 47 76t121 27q73 0 141 -37.5t110.5 -96t42.5 -115.5q0 -70 -36.5 -107.5t-93.5 -50t-137 -13.5v-73
h-81v184h42zM114 6.5q-27 25.5 -27 66.5q0 40 27 65.5t66 25.5t66 -25.5t27 -65.5q0 -41 -27 -66.5t-66 -25.5t-66 25.5z" />
    <glyph glyph-name="at" unicode="@" horiz-adv-x="942" 
d="M273 -127.5q-104 48.5 -168 145t-69 234.5q-4 122 60.5 223t173.5 158.5t232 57.5q115 0 206.5 -42t144.5 -123t53 -192q0 -85 -36 -151.5t-97 -103.5t-135 -37q-79 0 -102 71h-5q-24 -32 -63.5 -51.5t-82.5 -19.5q-75 0 -121.5 49t-46.5 127q0 26 6 56q20 94 89 150.5
t164 56.5q39 0 70 -15.5t45 -40.5h6l28 56h111l-72 -313q-2 -14 -2 -19q0 -39 37 -39q36 0 72 30t59 82t23 115q0 102 -47.5 170.5t-126.5 101.5t-175 33q-107 0 -202 -48t-152.5 -133.5t-57.5 -193.5q0 -125 54.5 -214t147.5 -134.5t208 -45.5q82 0 161 29l17 -47
q-81 -31 -177 -31q-126 0 -230 48.5zM489 123.5q26 17.5 42 52.5l45 196q-6 21 -25.5 33.5t-47.5 12.5q-51 0 -87.5 -39.5t-52.5 -116.5q-9 -42 -9 -72q0 -42 19 -63t59 -21q31 0 57 17.5z" />
    <glyph glyph-name="A" unicode="A" horiz-adv-x="683" 
d="M646.5 59.5q21.5 -19.5 45.5 -25.5l-6 -34h-253l-6 34q27 8 27 40q0 18 -8 37l-25 65h-259l-25 -65q-8 -19 -8 -37q0 -31 28 -40l-6 -34h-154l-6 34q24 6 46 25.5t34 51.5l186 477q-20 28 -57 53l4 34q43 3 87 14t73 31h8l240 -609q13 -32 34.5 -51.5zM293 505h-4
l-100 -258h204z" />
    <glyph glyph-name="B" unicode="B" horiz-adv-x="706" 
d="M624 304q47 -49 47 -116q0 -94 -68 -148.5t-184 -54.5q-60 0 -144 8q-11 1 -52 4t-88 3h-106l-6 34q23 6 37 26t14 52v476q0 32 -14 52t-37 26l6 34h376q64 0 114 -22t78 -61t28 -88q0 -53 -33.5 -94t-90.5 -58v-5q76 -19 123 -68zM230 631v-226h114q56 0 90.5 33.5
t34.5 83.5t-34.5 82t-95.5 32q-67 0 -109 -5zM477 98.5q38 39.5 38 102.5q0 64 -46 102t-114 38h-125v-262q7 -2 33 -8t51 -9t48 -3q77 0 115 39.5z" />
    <glyph glyph-name="C" unicode="C" horiz-adv-x="690" 
d="M195 29q-77 48 -118.5 131.5t-41.5 188.5q0 103 44.5 187.5t122.5 133.5t176 49q37 0 90 -11q40 -8 55 -8q27 0 49.5 6.5t31.5 12.5h12l43 -227l-41 -8q-27 75 -83.5 122.5t-140.5 47.5q-50 0 -97 -30t-77 -87t-30 -132q0 -99 34.5 -171.5t90.5 -110.5t120 -38
q78 0 123 49.5t68 117.5l41 -11q-11 -71 -46.5 -129.5t-97.5 -94.5t-147 -36q-104 0 -181 48z" />
    <glyph glyph-name="D" unicode="D" horiz-adv-x="731" 
d="M510 652.5q86 -47.5 136 -131t50 -187.5q0 -111 -44.5 -186t-122.5 -111.5t-179 -36.5h-321l-6 34q23 6 37 26t14 52v476q0 32 -14 52t-37 26l6 34h290q105 0 191 -47.5zM453 99q45 34 66.5 88.5t21.5 117.5q0 87 -29 162.5t-86 121.5t-137 46q-30 0 -59 -3v-555
q53 -12 111 -12q67 0 112 34z" />
    <glyph glyph-name="E" unicode="E" horiz-adv-x="639" 
d="M578 -18h-12q-15 8 -59.5 13t-81.5 5h-396l-6 33q23 6 37 26.5t14 52.5v476q0 32 -14 52t-37 26l6 34h528l41 -159l-35 -13q-24 45 -82 76t-147 31q-54 0 -104 -10v-232h186q32 0 53.5 14.5t26.5 37.5l34 -6v-158l-34 -6q-6 24 -27 38t-53 14h-186v-251q75 -11 133 -11
q82 0 143 36.5t93 88.5l36 -17z" />
    <glyph glyph-name="F" unicode="F" horiz-adv-x="602" 
d="M562 528q-23 45 -81 76t-147 31q-52 0 -104 -5v-260h175q32 0 53.5 14t26.5 37l34 -6v-157l-34 -6q-6 23 -27.5 37.5t-52.5 14.5h-175v-192q0 -32 14 -52.5t37 -26.5l-6 -33h-246l-6 33q23 6 36.5 26.5t13.5 52.5v476q0 33 -13.5 53t-36.5 25l6 34h528l41 -159z" />
    <glyph glyph-name="G" unicode="G" horiz-adv-x="728" 
d="M681 302q-14 -20 -14 -52v-250h-41l-40 63h-4q-37 -39 -89 -60.5t-117 -21.5q-104 0 -181 48t-118.5 131.5t-41.5 188.5q0 103 44.5 187.5t122.5 133.5t176 49q37 0 90 -11q40 -8 55 -8q27 0 49.5 6.5t31.5 12.5h12l43 -227l-41 -8q-27 75 -83 122.5t-140 47.5
q-50 0 -97.5 -32.5t-77 -91t-29.5 -134.5q0 -101 32 -173.5t87.5 -110.5t126.5 -38q42 0 76 18v158q0 34 -16 52t-46 26l6 33h255l6 -33q-23 -6 -37 -26z" />
    <glyph glyph-name="H" unicode="H" horiz-adv-x="750" 
d="M690.5 60q14.5 -20 36.5 -26l-5 -34h-246l-6 34q22 6 36.5 26t14.5 52v212h-291v-212q0 -32 14 -52t37 -26l-6 -34h-246l-6 34q23 6 37 26t14 52v476q0 32 -14 52t-37 26l6 34h245l7 -34q-23 -6 -37 -26t-14 -52v-188h291v188q0 32 -14.5 52t-36.5 26l6 34h246l5 -34
q-22 -6 -36.5 -26t-14.5 -52v-476q0 -32 14.5 -52z" />
    <glyph glyph-name="I" unicode="I" horiz-adv-x="304" 
d="M60 60q14 20 14 52v476q0 32 -14 52t-37 26l6 34h246l6 -34q-23 -6 -37 -26t-14 -52v-476q0 -32 14 -52t37 -26l-6 -34h-246l-6 34q23 6 37 26z" />
    <glyph glyph-name="J" unicode="J" horiz-adv-x="311" 
d="M-115.5 -178q-40.5 30 -40.5 72q0 30 20 49.5t48 19.5q32 0 48 -15t29 -42q11 -20 20 -29.5t24 -9.5q28 0 40.5 34.5t12.5 114.5v572q0 32 -14 52t-36 26l6 34h245l6 -34q-23 -5 -36.5 -25t-13.5 -53v-542q0 -133 -66 -193.5t-174 -60.5q-78 0 -118.5 30z" />
    <glyph glyph-name="K" unicode="K" horiz-adv-x="738" 
d="M749 34l-7 -34h-274l-6 34q12 3 19 11.5t7 21.5q0 19 -16 45l-151 247h-6l-85 -77v-170q0 -32 14 -52t37 -26l-6 -34h-246l-6 34q23 6 37 26t14 52v476q0 32 -14 52t-37 26l6 34h246l6 -34q-23 -6 -37 -26t-14 -52v-205h6l224 205q28 25 28 47q0 11 -7.5 19.5t-17.5 11.5
l6 34h231l6 -34q-29 -6 -66 -26t-72 -52l-130 -118l218 -358q40 -67 93 -78z" />
    <glyph glyph-name="L" unicode="L" horiz-adv-x="618" 
d="M552 -17h-13q-15 7 -60 12t-80 5h-370l-6 34q23 6 37 26t14 52v476q0 32 -14 52t-37 26l6 34h246l6 -34q-23 -6 -37 -26t-14 -52v-515q54 -8 107 -8q81 0 143.5 40t96.5 98l37 -16z" />
    <glyph glyph-name="M" unicode="M" horiz-adv-x="882" 
d="M50.5 60q16.5 20 20.5 52l63 476q1 6 1 17q0 25 -11 40.5t-30 20.5l6 34h182l160 -456h6l158 456h176l6 -34q-19 -5 -30.5 -21t-11.5 -41q0 -9 1 -13l63 -479q4 -32 20.5 -52t40.5 -26l-6 -34h-244l-6 34q19 5 30.5 21t11.5 43q0 9 -1 14l-51 370h-7l-167 -482h-63
l-170 485h-6l-51 -373q-1 -5 -1 -14q0 -27 11 -43t30 -21l-5 -34h-159l-6 34q23 6 39.5 26z" />
    <glyph glyph-name="N" unicode="N" horiz-adv-x="701" 
d="M643.5 640q-14.5 -20 -14.5 -52v-588h-78q-17 50 -47 93t-64 76.5t-91 84.5q-78 69 -125.5 120t-80.5 118h-4v-380q0 -32 14 -52t37 -26l-6 -34h-155l-6 34q23 5 36.5 25t13.5 53v476q0 33 -13.5 53t-36.5 25l6 34h141q44 -81 97 -142t131 -136q68 -66 104 -107t58 -90h5
v363q0 32 -14 52t-37 26l6 34h155l6 -34q-23 -6 -37.5 -26z" />
    <glyph glyph-name="O" unicode="O" horiz-adv-x="762" 
d="M210 29q-80 48 -127.5 131.5t-47.5 187.5q0 108 42.5 192.5t120.5 131.5t182 47q94 0 173.5 -48.5t126.5 -134t47 -191.5q0 -104 -44.5 -187t-123 -130t-175.5 -47q-94 0 -174 48zM500 75q35 30 54 78.5t19 102.5q0 90 -30 183t-84.5 154t-124.5 61q-46 0 -81 -29
t-54 -78t-19 -106q0 -95 30 -187t84.5 -150.5t124.5 -58.5q46 0 81 30z" />
    <glyph glyph-name="P" unicode="P" horiz-adv-x="716" 
d="M557.5 668.5q66.5 -31.5 102.5 -85t36 -119.5q0 -65 -36.5 -120.5t-107 -88.5t-168.5 -33q-81 0 -154 14v-124q0 -32 14 -52t37 -26l-6 -34h-246l-6 34q23 6 37 26t14 52v476q0 32 -14 52t-37 26l6 34h376q86 0 152.5 -31.5zM457 315q41 25 61 64.5t20 84.5
q0 46 -25.5 85.5t-70.5 62.5t-99 23q-62 0 -113 -11v-315q60 -19 127 -19q59 0 100 25z" />
    <glyph glyph-name="Q" unicode="Q" horiz-adv-x="762" 
d="M627.5 -47.5q35.5 17.5 56.5 42.5l30 -21q-17 -59 -60 -100.5t-108 -41.5q-44 0 -75.5 15t-77.5 46q-43 31 -76.5 46.5t-78.5 15.5q-36 0 -69.5 -16.5t-57.5 -40.5l-28 35q17 28 53 54t83 34v4q-83 47 -133.5 133t-50.5 192q0 108 42.5 192t121 131t182.5 47
q94 0 173.5 -48t126 -133.5t46.5 -191.5q0 -99 -40.5 -179.5t-111.5 -129t-161 -55.5v-3q42 -24 68.5 -34.5t64.5 -10.5q45 0 80.5 17.5zM253 627q-35 -29 -54 -78t-19 -106q0 -95 30 -186.5t85 -150.5t125 -59q46 0 81 30t54 78.5t19 102.5q0 90 -30 183t-85 154t-125 61
q-46 0 -81 -29z" />
    <glyph glyph-name="R" unicode="R" horiz-adv-x="749" 
d="M654 -16q-133 0 -162 137q-14 73 -33 109.5t-54 51t-100 14.5h-75v-184q0 -32 14 -52t37 -26l-6 -34h-246l-6 34q23 6 37 26t14 52v476q0 32 -14 52t-37 26l6 34h363q133 0 213 -53t80 -147q0 -70 -43 -117.5t-126 -67.5v-8q47 -6 74 -26t41.5 -50.5t25.5 -79.5
q10 -42 19 -65t27.5 -35t51.5 -10l3 -37q-58 -20 -104 -20zM230 626v-261h121q89 0 132.5 34.5t43.5 95.5q0 66 -50.5 103t-136.5 37q-61 0 -110 -9z" />
    <glyph glyph-name="S" unicode="S" horiz-adv-x="675" 
d="M296 -14.5q-24 4.5 -59 14.5q-54 15 -86 15q-29 0 -54 -15h-13l-56 220l40 15q43 -88 115.5 -142t160.5 -54q63 0 105.5 32.5t42.5 83.5q0 41 -26 67t-63.5 40.5t-104.5 34.5q-78 24 -126 45.5t-82 64t-34 110.5q0 62 34.5 107.5t92.5 70t127 24.5q36 0 61.5 -4.5
t66.5 -14.5q39 -12 62 -12q25 0 44 12h15l52 -198l-39 -11q-36 78 -101 123.5t-145 45.5q-58 0 -92.5 -27.5t-34.5 -68.5q0 -36 24.5 -58.5t59.5 -35t103 -31.5q82 -23 132.5 -45t86 -65.5t35.5 -115.5q0 -69 -38 -121.5t-104 -81.5t-148 -29q-30 0 -54 4.5z" />
    <glyph glyph-name="T" unicode="T" horiz-adv-x="701" 
d="M654 505q-31 53 -89 91t-136 40v-524q0 -32 14.5 -52t36.5 -26l-6 -34h-245l-6 34q22 6 36 26t14 52v524q-78 -2 -136.5 -40t-89.5 -91l-36 17l58 196h12q15 -8 55.5 -13t77.5 -5h273q37 0 77.5 5t56.5 13h12l57 -196z" />
    <glyph glyph-name="U" unicode="U" horiz-adv-x="656" 
d="M177 10.5q-69 29.5 -109 87.5t-40 141q0 20 1 30l28 319q3 32 -9 52t-34 26l6 34h247l6 -34q-24 -6 -39.5 -26t-18.5 -52l-28 -318q-1 -9 -1 -26q0 -59 24 -103.5t66 -69t94 -24.5q86 0 138 53.5t52 143.5q0 17 -1 26l-27 316q-3 32 -19.5 53.5t-40.5 26.5l6 34h158
l6 -34q-23 -6 -35 -27t-10 -53l28 -317q1 -9 1 -28q0 -78 -37.5 -137t-104.5 -91t-153 -32q-85 0 -154 29.5z" />
    <glyph glyph-name="V" unicode="V" horiz-adv-x="669" 
d="M634 640.5q-20 -19.5 -31 -52.5l-184 -535q8 -15 27 -34l-4 -19q-34 1 -77 -3t-83 -15h-8l-208 606q-11 33 -31.5 52.5t-43.5 25.5l7 34h252l6 -34q-14 -4 -22.5 -15.5t-8.5 -29.5q0 -15 6 -33l149 -434h7l150 434q6 20 6 33q0 18 -8.5 29.5t-21.5 15.5l6 34h153l6 -34
q-24 -6 -44 -25.5z" />
    <glyph glyph-name="W" unicode="W" horiz-adv-x="1012" 
d="M978 640.5q-20 -19.5 -29 -52.5l-163 -543q16 -21 21 -25l-6 -19q-58 0 -103 -6.5t-62 -12.5h-14l-115 426h-7l-113 -360q5 -9 23 -29l-6 -19q-36 1 -80 -3t-85 -15h-8l-170 606q-9 33 -28 52.5t-42 25.5l8 34h254l5 -34q-15 -4 -24.5 -17t-9.5 -33q0 -15 4 -28l122 -434
h5l119 376l-9 35q-2 7 -8 29.5t-17 39.5t-30 33l9 34q43 -1 88.5 3.5t77.5 16.5h7l154 -567h6l131 434q5 18 5 30q0 19 -9.5 31.5t-23.5 16.5l5 34h154l7 -34q-23 -6 -43 -25.5z" />
    <glyph glyph-name="X" unicode="X" horiz-adv-x="679" 
d="M683 34l-6 -34h-270l-6 34q12 3 19.5 12t7.5 23q0 18 -16 43l-120 185h-9l-122 -185q-15 -23 -15 -43q0 -14 7.5 -23t19.5 -12l-6 -34h-165l-6 34q25 5 46 24t44 54l163 251l-146 225q-44 68 -91 78l6 34h271l6 -34q-12 -3 -19.5 -12t-7.5 -23q0 -20 15 -43l103 -158h8
l104 158q16 25 16 43q0 14 -7.5 23t-19.5 12l6 34h164l6 -34q-48 -10 -90 -78l-145 -223l165 -253q42 -68 90 -78z" />
    <glyph glyph-name="Y" unicode="Y" horiz-adv-x="654" 
d="M234 60q14 20 14 52v217l-167 259q-42 68 -90 78l5 34h271l6 -34q-12 -3 -19.5 -12t-7.5 -23q0 -20 15 -43l115 -174h7l114 174q16 25 16 43q0 14 -7.5 23t-19.5 12l6 34h165l6 -34q-25 -5 -47 -24.5t-43 -53.5l-169 -260v-216q0 -32 14 -52t37 -26l-6 -34h-246l-5 34
q22 6 36 26z" />
    <glyph glyph-name="Z" unicode="Z" horiz-adv-x="655" 
d="M504 -5.5q-41 5.5 -77 5.5h-394l-6 37l392 599h-106q-81 0 -143 -41t-96 -100l-36 17l62 207h13q15 -8 56 -13.5t76 -5.5h365l6 -37l-393 -599h137q81 0 144.5 46t100.5 113l36 -16l-69 -226h-12q-15 8 -56 13.5z" />
    <glyph glyph-name="bracketleft" unicode="[" horiz-adv-x="351" 
d="M329 716v-50h-144v-820h145v-49h-261l-1 919h261z" />
    <glyph glyph-name="backslash" unicode="\" horiz-adv-x="347" 
d="M62 730l285 -947h-62l-285 947h62z" />
    <glyph glyph-name="bracketright" unicode="]" horiz-adv-x="351" 
d="M167 -154v820h-145v50h261v-919h-261v49h145z" />
    <glyph glyph-name="asciicircum" unicode="^" horiz-adv-x="537" 
d="M297 700l196 -295h-56l-169 162l-168 -162h-56l196 295h57z" />
    <glyph glyph-name="underscore" unicode="_" horiz-adv-x="533" 
d="M534 -42v-50h-534v50h534z" />
    <glyph glyph-name="grave" unicode="`" horiz-adv-x="520" 
d="M82 710q0 17 12.5 29.5t32.5 12.5q19 0 32.5 -8.5t26.5 -26.5l97 -125l-35 -27l-130 89q-36 23 -36 56z" />
    <glyph glyph-name="a" unicode="a" horiz-adv-x="565" 
d="M540 -9.5q-29 -9.5 -56 -9.5q-41 0 -73.5 20t-44.5 67h-5q-25 -45 -70.5 -66t-94.5 -21q-74 0 -123 39t-49 105q0 63 42 103t106 61.5t157 38.5l-10 71q-4 36 -24.5 57t-49.5 21t-48 -17t-16 -43q1 -5 1 -14q0 -26 -18.5 -42t-44.5 -16q-30 0 -47 18t-17 50q1 32 23.5 61
t67.5 48t109 19q83 0 141.5 -47t69.5 -140l27 -232q5 -38 18.5 -59t34.5 -21q12 0 30 8l12 -30q-19 -20 -48 -29.5zM303 75.5q23 15.5 36 41t12 53.5l-16 114q-79 -16 -125.5 -48.5t-46.5 -86.5q0 -41 25.5 -65t65.5 -24q26 0 49 15.5z" />
    <glyph glyph-name="b" unicode="b" horiz-adv-x="627" 
d="M478.5 504.5q56.5 -36.5 88.5 -101t32 -144.5t-30 -143.5t-85 -99t-126 -35.5q-57 0 -102.5 26t-77.5 72q-47 -34 -81 -79h-35v587q0 32 -14 52.5t-37 26.5l6 33q44 8 92 26t90 46l12 -4q-15 -56 -15 -172v-122h6q28 32 67 50t83 18q70 0 126.5 -36.5zM439.5 93.5
q31.5 44.5 31.5 109.5q0 57 -18.5 120t-55 106.5t-86.5 43.5q-51 0 -82.5 -43t-31.5 -112q0 -58 18.5 -120.5t55 -105.5t88.5 -43q49 0 80.5 44.5z" />
    <glyph glyph-name="c" unicode="c" horiz-adv-x="552" 
d="M166 19q-65 38 -101.5 103t-36.5 141q0 84 37 147t101 97t141 34q64 0 116.5 -22.5t82.5 -59t30 -76.5q0 -26 -20 -47t-47 -21q-37 0 -53 19.5t-30 58.5q-11 29 -21 46.5t-29.5 29.5t-52.5 12q-32 0 -60 -20.5t-45 -56.5t-17 -81q0 -114 52 -175.5t146 -61.5
q48 0 89.5 27.5t61.5 62.5l29 -10q-14 -79 -70 -132t-157 -53q-81 0 -146 38z" />
    <glyph glyph-name="d" unicode="d" horiz-adv-x="637" 
d="M580 60q14 -20 36 -26l-6 -34q-85 -5 -138 -19h-13l-14 75h-6q-35 -40 -73.5 -57.5t-90.5 -17.5q-70 0 -126.5 36.5t-88.5 101t-32 144.5t30 143.5t85 99t126 35.5q95 0 157 -74h6v120q0 32 -14 52.5t-37 26.5l6 33q98 16 181 72l12 -4q-14 -56 -14 -172v-483
q0 -32 14 -52zM399 92.5q31 43.5 31 111.5q0 58 -18 120.5t-54.5 105.5t-88.5 43q-50 0 -81 -44.5t-31 -110.5q0 -56 18.5 -119t55 -106.5t86.5 -43.5q51 0 82 43.5z" />
    <glyph glyph-name="e" unicode="e" horiz-adv-x="592" 
d="M457.5 114q40.5 28 59.5 64l29 -11q-6 -48 -36.5 -90.5t-82.5 -69t-118 -26.5q-80 0 -144.5 37.5t-100.5 102.5t-36 142q0 83 36.5 146t99.5 97.5t140 34.5q82 0 139 -38t80 -98q14 -34 34 -38l7 -44l-385 -108q21 -64 69 -96.5t119 -32.5q50 0 90.5 28zM225.5 453.5
q-28.5 -21.5 -44.5 -57.5t-16 -79q0 -16 2 -42l240 66q-5 53 -36 93.5t-82 40.5q-35 0 -63.5 -21.5z" />
    <glyph glyph-name="f" unicode="f" horiz-adv-x="389" 
d="M200 625.5q8 -21.5 23 -54.5q16 -34 21 -49h150v-67h-141v-344q0 -32 14 -52.5t37 -25.5l-6 -33h-224l-6 33q23 5 37 25.5t14 52.5v344h-98v67h95q-2 16 -10 44q-12 46 -12 72q0 40 19.5 74t56 54t86.5 20q59 0 100 -32t41 -79q0 -27 -14.5 -44.5t-41.5 -17.5
q-29 0 -41 14t-21 42q-8 25 -16.5 36.5t-29.5 11.5q-19 0 -30 -13.5t-11 -36.5q0 -20 8 -41.5z" />
    <glyph glyph-name="g" unicode="g" horiz-adv-x="581" 
d="M419 509q47 -27 73.5 -70.5t26.5 -101.5q0 -60 -29 -105.5t-82 -70t-123 -24.5t-124 24q-17 -4 -26 -14t-9 -21q0 -19 19.5 -29t64.5 -14.5t127 -4.5q120 0 170.5 -30t50.5 -95q0 -55 -37 -95t-100.5 -61t-143.5 -21q-110 0 -179.5 27t-69.5 93q0 28 15 50.5t40 35.5v5
q-54 29 -54 94q0 40 23 67.5t59 37.5v6q-32 27 -49.5 65t-17.5 85q0 59 29.5 104.5t83.5 70t124 24.5q48 0 88 -12q48 82 129 82q32 0 54 -15.5t22 -43.5q0 -25 -13 -41.5t-40 -16.5q-13 0 -22 4.5t-19 12.5q-10 7 -15.5 10.5t-14.5 3.5q-17 0 -31 -16zM363 225.5
q25 28.5 25 76.5q0 42 -14.5 83.5t-42.5 68t-65 26.5q-40 0 -66 -28.5t-26 -75.5q0 -39 15 -80.5t43.5 -70t67.5 -28.5q38 0 63 28.5zM134.5 -60q-10.5 -15 -10.5 -32q0 -34 39 -53.5t116 -19.5q50 0 86.5 12t55.5 30t19 35q0 19 -11 28t-39.5 12t-88.5 3q-77 0 -136 8
q-20 -8 -30.5 -23z" />
    <glyph glyph-name="h" unicode="h" horiz-adv-x="617" 
d="M588 59.5q16 -20.5 39 -26.5l-6 -33h-223l-6 33q22 6 34 26.5t9 51.5l-24 248q-4 55 -31 84t-68 29q-44 0 -75 -29.5t-31 -75.5v-256q0 -32 14 -52t37 -26l-6 -33h-224l-6 33q23 6 37 26t14 52v477q0 32 -14 52t-37 26l6 33q44 8 92 26t90 47l12 -5q-15 -56 -15 -172
v-120h7q21 29 56.5 47.5t80.5 18.5q87 0 139.5 -54t61.5 -162l18 -214q3 -31 19 -51.5z" />
    <glyph glyph-name="i" unicode="i" horiz-adv-x="281" 
d="M76.5 623q-22.5 23 -22.5 55q0 33 22.5 57t61.5 24q38 0 62 -24.5t24 -56.5q0 -31 -24 -54.5t-62 -23.5q-39 0 -61.5 23zM60 59q14 20 14 52v250q0 32 -14 52t-37 26l6 33q88 13 166 69h13v-430q0 -32 14 -52t38 -26l-7 -33h-224l-6 33q23 6 37 26z" />
    <glyph glyph-name="j" unicode="j" horiz-adv-x="287" 
d="M85.5 623q-22.5 23 -22.5 55q0 33 22.5 57t61.5 24q38 0 61.5 -24.5t23.5 -56.5t-23.5 -55t-61.5 -23q-39 0 -61.5 23zM-55.5 -194q-38.5 30 -38.5 75q0 25 17 42.5t45 17.5q33 0 44 -16t16 -48q4 -26 11.5 -39t28.5 -13q20 0 31.5 21t11.5 50q0 28 -13 73
q-8 31 -11.5 50t-3.5 43v299q0 32 -14 52t-36 26l6 33q87 13 165 69h13l1 -576q0 -88 -43 -138.5t-127 -50.5q-65 0 -103.5 30z" />
    <glyph glyph-name="k" unicode="k" horiz-adv-x="612" 
d="M576 59q27 -20 53 -26l-6 -33h-248l-6 33q20 6 20 27t-20 51l-111 169h-8l-44 -48v-121q0 -32 14 -52t37 -26l-6 -33h-224l-6 33q22 6 36.5 26.5t14.5 51.5v477q0 32 -14.5 52t-36.5 26l6 33q44 8 92 26t90 47l12 -5q-15 -56 -15 -172v-267h6l102 115q40 47 79 72.5
t91 25.5q49 0 78.5 -23.5t29.5 -63.5q0 -37 -19 -60.5t-55 -23.5q-22 0 -35.5 8.5t-28.5 24.5q-11 13 -20.5 19.5t-22.5 6.5q-23 0 -64 -42l180 -276q22 -32 49 -52z" />
    <glyph glyph-name="l" unicode="l" 
d="M58 59q14 20 14 52v477q0 32 -14 52t-37 26l7 33q44 8 91.5 26t89.5 47l12 -5q-15 -56 -15 -172v-484q0 -31 14.5 -51.5t36.5 -26.5l-6 -33h-223l-7 33q23 6 37 26z" />
    <glyph glyph-name="m" unicode="m" horiz-adv-x="921" 
d="M884.5 59.5q16.5 -20.5 39.5 -26.5l-6 -33h-224l-6 33q20 6 32 22.5t12 42.5q0 8 -1 13l-21 224q-5 61 -24 92t-62 31q-41 0 -65.5 -34.5t-24.5 -84.5v-3v-11v-214q0 -32 14 -52t36 -26l-6 -33h-225l-6 33q23 6 37 26t14 52v224q0 58 -23 90.5t-68 32.5
q-44 0 -72.5 -33.5t-28.5 -83.5v-230q0 -31 14.5 -51.5t36.5 -26.5l-6 -33h-224l-6 33q23 6 37 26t14 52v246q0 32 -14 52.5t-37 25.5l6 33q78 13 159 73h13l4 -91h6q56 91 149 91q52 0 91.5 -23t60.5 -68h6q55 91 150 91q163 0 182 -216l18 -214q2 -31 18.5 -51.5z" />
    <glyph glyph-name="n" unicode="n" horiz-adv-x="612" 
d="M582 59q16 -20 40 -26l-6 -33h-224l-7 33q20 5 32 21.5t12 42.5q0 9 -1 14l-20 224q-5 58 -30.5 90.5t-70.5 32.5q-44 0 -73 -33t-29 -82v-232q0 -32 14.5 -52t37.5 -26l-7 -33h-223l-5 33q22 6 35.5 26t13.5 52v246q0 32 -13.5 52.5t-36.5 25.5l6 33q78 13 159 73h13
l3 -81h5q23 36 59.5 58.5t86.5 22.5q174 0 193 -216l17 -214q3 -32 19 -52z" />
    <glyph glyph-name="o" unicode="o" horiz-adv-x="602" 
d="M160.5 18q-63.5 37 -98 102t-34.5 145t34 142.5t95.5 98t142.5 35.5t143.5 -36.5t96.5 -100.5t34 -145q0 -80 -33 -143.5t-94 -99t-141 -35.5q-82 0 -145.5 37zM415.5 93.5q29.5 43.5 29.5 110.5q0 51 -21 114.5t-60.5 109t-91.5 45.5q-54 0 -84 -43t-30 -112
q0 -52 21 -115t61 -108t93 -45t82.5 43.5z" />
    <glyph glyph-name="p" unicode="p" horiz-adv-x="630" 
d="M481.5 504.5q56.5 -36.5 88.5 -101t32 -144.5t-30 -143.5t-85 -99t-126 -35.5q-95 0 -157 74h-5v-148q0 -32 14.5 -52t36.5 -26l-5 -34h-224l-6 34q23 5 36.5 25t13.5 53v450q0 32 -14 52.5t-37 25.5l7 34q37 6 78.5 25t74.5 47h13l6 -73h5q32 38 69.5 55.5t87.5 17.5
q70 0 126.5 -36.5zM442.5 94q31.5 44 31.5 110q0 56 -18.5 119t-55 106.5t-86.5 43.5q-51 0 -82.5 -43t-31.5 -112q0 -58 18.5 -120.5t55 -105t87.5 -42.5q50 0 81.5 44z" />
    <glyph glyph-name="q" unicode="q" horiz-adv-x="627" 
d="M582 -145q14 -20 36 -26l-6 -34h-223l-6 34q22 6 36.5 26t14.5 52v144h-8q-61 -70 -150 -70q-70 0 -126.5 36.5t-89 101t-32.5 144.5t30 143.5t85 99t126 35.5q109 0 178 -101q52 36 86 82h35v-615q0 -32 14 -52zM399 92q31 43 31 112q0 58 -18.5 120.5t-55 105.5
t-87.5 43q-50 0 -81.5 -44.5t-31.5 -110.5q0 -56 18.5 -119t55.5 -106.5t87 -43.5q51 0 82 43z" />
    <glyph glyph-name="r" unicode="r" horiz-adv-x="473" 
d="M436.5 513q29.5 -28 29.5 -69q0 -35 -24 -60t-58 -25q-32 0 -46.5 13t-25.5 38q-9 18 -16.5 26t-21.5 8q-15 0 -31 -13t-26.5 -35.5t-10.5 -48.5v-235q0 -32 14.5 -52t36.5 -26l-6 -34h-224l-6 34q23 5 36.5 25t13.5 53v244q0 33 -13.5 53t-36.5 25l6 34q71 11 158 73h14
l4 -87h4q28 42 67 64.5t84 22.5q49 0 78.5 -28z" />
    <glyph glyph-name="s" unicode="s" horiz-adv-x="535" 
d="M243.5 -14q-22.5 5 -58.5 15q-49 15 -69 15q-26 0 -44 -16h-12l-44 183l30 9q47 -74 111 -112.5t130 -38.5q42 0 69 18.5t27 53.5q0 38 -41 62.5t-112 45.5q-189 52 -189 162q0 46 27.5 82t74.5 56t103 20q30 0 53.5 -5.5t50.5 -15.5q14 -5 28.5 -9t26.5 -4q25 0 43 15
h11l35 -160l-35 -12q-38 65 -90 99.5t-104 34.5q-38 0 -60.5 -17.5t-22.5 -43.5q0 -35 35.5 -55t105.5 -40q60 -18 100.5 -36.5t67.5 -50t27 -80.5q0 -85 -63.5 -132.5t-162.5 -47.5q-26 0 -48.5 5z" />
    <glyph glyph-name="t" unicode="t" horiz-adv-x="394" 
d="M140.5 15q-37.5 34 -37.5 111v328h-89v46q68 22 112 63t70 107h42v-148h135v-68h-135v-331q0 -74 59 -74q32 0 61 12l13 -56q-21 -9 -57 -16.5t-64 -7.5q-72 0 -109.5 34z" />
    <glyph glyph-name="u" unicode="u" horiz-adv-x="625" 
d="M567.5 60q14.5 -20 36.5 -26l-6 -35q-87 -4 -140 -18h-12l-21 93h-3q-60 -93 -172 -93q-84 0 -135 54t-51 161v164q0 32 -14 52t-36 26l6 34q89 14 166 69h13v-354q0 -59 29.5 -91t78.5 -32q46 0 79 33t33 81v182q0 32 -14 52.5t-36 25.5l6 34q93 16 165 69h13v-429
q0 -32 14.5 -52z" />
    <glyph glyph-name="v" unicode="v" horiz-adv-x="534" 
d="M498.5 518.5q19.5 -22.5 19.5 -61.5q0 -27 -12.5 -61.5t-37.5 -85.5l-146 -310h-94l-137 356q-26 69 -86 79l5 34q39 6 77.5 24.5t64.5 47.5h13l153 -403h5l92 200q12 24 12 35t-6 18t-20 18q-19 14 -29 27.5t-10 37.5q0 30 21.5 48.5t56.5 18.5q39 0 58.5 -22.5z" />
    <glyph glyph-name="w" unicode="w" horiz-adv-x="788" 
d="M750.5 516.5q21.5 -24.5 21.5 -62.5q0 -27 -11 -61.5t-32 -82.5l-132 -310h-110l-86 274h-4l-91 -274h-128l-101 356q-21 69 -78 79l6 34q40 6 82 24.5t71 47.5h12l112 -394h5l123 375h63l119 -375h5l79 192q9 23 9 33q0 11 -7 18.5t-20 17.5q-21 14 -31.5 28t-10.5 39
q0 30 20 48t54 18q39 0 60.5 -24.5z" />
    <glyph glyph-name="x" unicode="x" horiz-adv-x="619" 
d="M557.5 59q25.5 -20 51.5 -25l-6 -34h-249l-6 34q21 6 21 28q0 23 -19 50l-74 108h-5l-79 -108q-25 -34 -25 -54q0 -19 18 -24l-10 -34h-163l-2 34q26 5 55 25t54 53l115 154l-96 145q-21 32 -47 52t-53 26l6 33h250l6 -33q-21 -6 -21 -29q0 -22 19 -49l52 -76h5l56 76
q25 31 25 53q0 18 -18 25l10 33h163l2 -33q-27 -6 -55 -26t-53 -52l-92 -122l117 -177q22 -33 47.5 -53z" />
    <glyph glyph-name="y" unicode="y" horiz-adv-x="546" 
d="M510.5 515q22.5 -26 22.5 -64q0 -74 -57 -210q-35 -97 -72.5 -172t-91.5 -147q-52 -76 -96 -111t-97 -35q-38 0 -64.5 22t-26.5 56q0 32 20.5 51.5t51.5 19.5q21 0 34 -8.5t25 -22.5q14 -16 24 -16q17 0 36 19t45 62l27 41h-30l-156 356q-15 35 -42.5 54.5t-57.5 24.5
l6 34q40 6 82.5 25t65.5 47h14l182 -411h7q30 62 51 131q20 49 26.5 72t5.5 41q-1 12 -7.5 19t-22.5 19q-20 14 -30.5 27t-10.5 36q0 30 21.5 48t54.5 18q38 0 60.5 -26z" />
    <glyph glyph-name="z" unicode="z" horiz-adv-x="541" 
d="M396 -5.5q-41 5.5 -77 5.5h-293l-6 41l303 420v6h-79q-61 0 -100 -24t-66 -79l-31 13l34 145h416l6 -40l-301 -416v-6h92q70 0 123.5 40t83.5 98l31 -15l-67 -202h-13q-15 8 -56 13.5z" />
    <glyph glyph-name="braceleft" unicode="{" horiz-adv-x="344" 
d="M219 -198q-49 17 -81 54.5t-32 93.5q0 8 2 26l19 155q1 4 1 13q0 38 -28 61t-77 23v60q49 0 77 23t28 61q0 9 -1 13l-19 155q-2 18 -2 26q0 56 32 93.5t81 55t102 17.5v-38q-42 0 -73 -20t-31 -64q0 -10 1 -16l21 -162q2 -16 2 -24q0 -60 -37 -96.5t-93 -51.5v-4
q56 -15 93 -51.5t37 -96.5q0 -8 -2 -24l-21 -162q-1 -5 -1 -15q0 -44 31 -64t73 -20v-38q-53 0 -102 17z" />
    <glyph glyph-name="bar" unicode="|" horiz-adv-x="329" 
d="M194 726v-943h-60v943h60z" />
    <glyph glyph-name="braceright" unicode="}" horiz-adv-x="344" 
d="M95.5 -157q30.5 20 30.5 63q0 10 -1 16l-21 162q-2 16 -2 24q0 60 37.5 96.5t93.5 51.5v4q-56 15 -93.5 51.5t-37.5 96.5q0 8 2 24l21 162q1 6 1 16q0 44 -30.5 64t-72.5 20v38q53 0 102 -17.5t81 -55t32 -93.5q0 -8 -2 -26l-19 -155q-1 -5 -1 -14q0 -38 28 -60.5
t77 -22.5v-60q-49 0 -77 -22.5t-28 -60.5q0 -9 1 -14l19 -155q2 -18 2 -26q0 -56 -32 -93.5t-81.5 -54.5t-101.5 -17v38q42 0 72.5 20z" />
    <glyph glyph-name="asciitilde" unicode="~" horiz-adv-x="540" 
d="M291 283.5q-29 13.5 -63 37.5q-28 19 -44 27t-33 8q-28 0 -42 -16t-14 -56h-54q0 92 39.5 136.5t103.5 44.5q36 0 65.5 -13.5t64.5 -37.5q30 -19 45.5 -27t32.5 -8q28 0 42 16t14 56h51q0 -92 -39 -136.5t-104 -44.5q-36 0 -65 13.5z" />
    <glyph glyph-name="uni00A0" unicode="&#xa0;" horiz-adv-x="137" 
 />
    <glyph glyph-name="exclamdown" unicode="&#xa1;" 
d="M71.5 561.5q-26.5 25.5 -26.5 65.5q0 41 27 66.5t65 25.5q39 0 66 -25.5t27 -66.5q0 -40 -27 -65.5t-66 -25.5t-65.5 25.5zM73 5.5q-27 24.5 -27 80.5q0 34 5 63t15 71q15 68 23 120t11 134h78q3 -82 11.5 -136.5t23.5 -115.5q10 -44 15 -72t5 -62q0 -57 -27.5 -82
t-66.5 -25t-66 24.5z" />
    <glyph glyph-name="cent" unicode="&#xa2;" horiz-adv-x="616" 
d="M465.5 157.5q-48.5 -48.5 -126.5 -60.5v-97h-77v96q-65 7 -115 41.5t-77.5 88.5t-27.5 118q0 70 28.5 124t78.5 87t113 42v103h77v-102q52 -6 94 -27.5t65.5 -53t23.5 -65.5q0 -25 -18 -44.5t-44 -19.5q-33 0 -48 17.5t-29 54.5q-10 27 -19.5 44t-28.5 28.5t-51 11.5
q-33 0 -63.5 -21.5t-50 -58t-19.5 -78.5q0 -99 52.5 -153t137.5 -54q51 0 95 29t64 71l26 -10q-12 -63 -60.5 -111.5z" />
    <glyph glyph-name="sterling" unicode="&#xa3;" horiz-adv-x="728" 
d="M691 195.5q18 -30.5 18 -64.5q0 -74 -42 -112t-112 -38q-32 0 -64.5 12.5t-56.5 27.5t-77 51q-33 -45 -83.5 -68t-102.5 -23q-69 0 -108.5 31.5t-39.5 82.5q0 52 42.5 83t100.5 31q46 0 86 -9q-4 29 -13.5 53.5t-27.5 59.5l-15 30h-135v76h107q-10 40 -10 80
q0 71 34.5 120.5t93.5 74.5t132 25q65 0 115 -21t77.5 -58t27.5 -82q0 -38 -19 -62.5t-53 -24.5q-30 0 -48 16t-18 39q0 11 6 31q6 18 6 25q0 29 -25 50t-66 21q-53 0 -83 -41.5t-30 -97.5q0 -47 20 -95h165v-76h-129q17 -34 26 -64t9 -63q0 -35 -7 -62q70 -30 107 -42.5
t73 -12.5q30 0 52.5 17t22.5 49q0 17 -9 30.5t-18 17.5l26 28q27 -15 45 -45.5zM219 75.5q24 21.5 32 58.5q-46 17 -83 17q-28 0 -48.5 -14t-20.5 -36q0 -21 18 -34t45 -13q33 0 57 21.5z" />
    <glyph glyph-name="currency" unicode="&#xa4;" horiz-adv-x="643" 
d="M251.5 172.5q-34.5 10.5 -60.5 28.5l-98 -98l-71 72l97 97q-18 26 -28 60.5t-10 69.5q0 36 10.5 70t28.5 60l-98 99l71 71l98 -98q26 18 60 28t71 10q36 0 69.5 -10t59.5 -28l99 98l72 -72l-99 -97q18 -27 28.5 -61t10.5 -70q0 -35 -10.5 -69t-28.5 -61l98 -98l-71 -71
l-98 98q-27 -18 -61 -28.5t-69 -10.5q-36 0 -70.5 10.5zM389 285.5q31 18.5 49.5 49.5t18.5 67q0 37 -18.5 68t-49.5 49.5t-67 18.5q-37 0 -68 -18.5t-49.5 -49.5t-18.5 -68q0 -36 18.5 -67t49.5 -49.5t68 -18.5q36 0 67 18.5z" />
    <glyph glyph-name="yen" unicode="&#xa5;" horiz-adv-x="695" 
d="M593 588l-126 -195h125v-68h-167v-84h167v-69h-167v-60q0 -32 14 -52.5t37 -26.5l-6 -33h-246l-6 33q23 6 37 26.5t14 52.5v60h-165v69h165v84h-165v68h124l-126 195q-43 67 -91 79l6 33h271l6 -33q-12 -4 -19.5 -13t-7.5 -23q0 -20 15 -43l115 -174h7l114 174
q16 25 16 43q0 14 -7.5 23t-19.5 13l6 33h164l6 -33q-46 -11 -90 -79z" />
    <glyph glyph-name="brokenbar" unicode="&#xa6;" horiz-adv-x="329" 
d="M194 726v-405h-60v405h60zM194 187v-404h-60v404h60z" />
    <glyph glyph-name="section" unicode="&#xa7;" horiz-adv-x="514" 
d="M76 473q-41 36 -41 92q0 42 29.5 77.5t78.5 56t106 20.5q58 0 104.5 -18.5t73 -48.5t26.5 -61q0 -23 -14.5 -38.5t-38.5 -15.5q-25 0 -36.5 12.5t-22.5 39.5q-9 23 -18 37t-29 24t-53 10q-43 0 -72 -23t-29 -57q0 -25 25 -42.5t54.5 -26.5t77.5 -21q92 -24 137 -60.5
t45 -101.5q0 -53 -42 -99q43 -39 42 -95q0 -42 -29 -77t-78 -55.5t-106 -20.5q-64 0 -113.5 19t-76.5 48.5t-27 60.5q1 22 15 37.5t38 15.5t36 -12t26 -38q12 -23 23 -37.5t33 -25t57 -10.5q43 0 70 22.5t28 58.5q0 25 -25 42t-54 26t-78 21q-92 24 -137.5 61t-45.5 101
q0 53 41 102zM157.5 340q34.5 -26 95.5 -39q87 -19 126 -39q12 19 12 39q0 36 -33.5 59.5t-96.5 37.5q-46 11 -75.5 19.5t-53.5 21.5q-9 -16 -9 -36q0 -37 34.5 -63z" />
    <glyph glyph-name="dieresis" unicode="&#xa8;" horiz-adv-x="458" 
d="M79.5 617q-19.5 20 -19.5 46q0 28 19.5 48.5t51.5 20.5t52 -20.5t20 -48.5q0 -26 -20 -46t-52 -20t-51.5 20zM274.5 617q-19.5 20 -19.5 46q0 28 19.5 48.5t51.5 20.5t52 -20.5t20 -48.5q0 -26 -20 -46t-52 -20t-51.5 20z" />
    <glyph glyph-name="copyright" unicode="&#xa9;" horiz-adv-x="795" 
d="M210 31q-86 50 -136.5 134.5t-50.5 184.5q0 99 50.5 184t136.5 135t187 50q102 0 188 -50t136.5 -135t50.5 -184q0 -100 -50.5 -184.5t-136.5 -134.5t-187 -50q-102 0 -188 50zM565 65q76 44 121 119.5t45 165.5q0 89 -45 164.5t-121.5 119.5t-167.5 44q-90 0 -166.5 -44
t-121.5 -119.5t-45 -164.5q0 -90 45 -165.5t121.5 -119.5t167.5 -44t167 44zM284 150q-50 28 -78.5 81t-28.5 126q0 61 28 112.5t78 82t112 30.5q15 0 58 -5q36 -6 61 -6h34l30 -140l-25 -7q-23 54 -60 84t-86 30q-62 0 -98 -51.5t-36 -130.5q0 -87 37 -135.5t99 -48.5
q57 0 93 36t49 80l36 -8q-12 -68 -62 -113t-126 -45q-65 0 -115 28z" />
    <glyph glyph-name="ordfeminine" unicode="&#xaa;" horiz-adv-x="291" 
d="M252.5 475q-13.5 -4 -26.5 -4q-44 0 -55 37h-2q-11 -19 -31 -28t-41 -9q-33 0 -54.5 17t-21.5 46q0 41 34.5 59t98.5 30l-5 33q-2 15 -10 23.5t-19 8.5q-12 0 -19.5 -7t-6.5 -18q3 -14 -6 -23.5t-23 -9.5t-22.5 9.5t-7.5 23.5q1 22 24 39t66 17q38 0 64 -21.5t32 -64.5
l10 -98q4 -35 26 -35q6 0 12 3l6 -14q-9 -10 -22.5 -14zM153.5 523.5q11.5 14.5 9.5 33.5l1 -1l-7 47q-69 -16 -69 -57q0 -17 10.5 -27t26.5 -10q17 0 28.5 14.5zM258 444v-46h-228v46h228z" />
    <glyph glyph-name="guillemotleft" unicode="&#xab;" horiz-adv-x="546" 
d="M46 267l204 218l35 -23l-107 -222l107 -222l-35 -22l-204 218v53zM261 267l205 218l34 -23l-107 -222l107 -222l-34 -22l-205 218v53z" />
    <glyph glyph-name="logicalnot" unicode="&#xac;" horiz-adv-x="542" 
d="M9 399v75h525v-235h-79v160h-446z" />
    <glyph glyph-name="uni00AD" unicode="&#xad;" horiz-adv-x="219" 
d="M211 276v-68h-202v68h202z" />
    <glyph glyph-name="registered" unicode="&#xae;" horiz-adv-x="446" 
d="M324 692.5q46 -26.5 73 -72t27 -99.5q0 -53 -27 -98.5t-73 -72t-101 -26.5t-101 26.5t-73 72t-27 98.5q0 54 27 99.5t73 72t101 26.5t101 -26.5zM305 381.5q38 21.5 60 58.5t22 81t-22 81.5t-60 59t-82 21.5t-82 -21.5t-60 -59t-22 -81.5t22 -81t60 -58.5t82 -21.5
t82 21.5zM310 416q-43 0 -53 40q-8 32 -16.5 41t-35.5 9h-13v-47q0 -23 16 -26l-3 -12h-80l-3 12q16 3 16 26v131q0 22 -16 25l3 11h113q40 0 64 -15.5t24 -43.5q0 -43 -51 -55v-2q20 -2 28.5 -12.5t14.5 -31.5q1 -3 3.5 -13t8 -14t14.5 -4l1 -13q-20 -6 -35 -6zM192 602
v-73h30q25 0 37 10t12 26q0 18 -14 28.5t-38 10.5q-13 0 -27 -2z" />
    <glyph glyph-name="macron" unicode="&#xaf;" horiz-adv-x="458" 
d="M376 688v-69h-294v69h294z" />
    <glyph glyph-name="degree" unicode="&#xb0;" horiz-adv-x="265" 
d="M55 533q-32 32 -32 76q0 46 32 78t77 32q46 0 78 -32t32 -78q0 -44 -32 -76t-78 -32q-45 0 -77 32zM178 563.5q19 18.5 19 45.5t-19 46t-46 19q-26 0 -44.5 -19t-18.5 -46t18.5 -45.5t44.5 -18.5q27 0 46 18.5z" />
    <glyph glyph-name="plusminus" unicode="&#xb1;" horiz-adv-x="563" 
d="M9 322v60h242v242h60v-242h243v-60h-243v-219h-60v219h-242zM554 57v-57h-545v57h545z" />
    <glyph glyph-name="uni00B2" unicode="&#xb2;" horiz-adv-x="262" 
d="M207 422h-5q-7 3 -24 5t-31 2h-115v35q56 41 87.5 78.5t31.5 85.5q0 24 -12.5 38.5t-33.5 14.5q-23 0 -39.5 -17.5t-16.5 -48.5l-20 3q1 41 27 65.5t67 24.5q42 0 69 -21.5t27 -58.5q0 -48 -34 -82t-92 -65v-2h34q61 0 91 34l15 -6z" />
    <glyph glyph-name="uni00B3" unicode="&#xb3;" horiz-adv-x="257" 
d="M54 434.5q-26 12.5 -26 35.5q0 13 6.5 20.5t19.5 7.5t19 -6.5t11 -18.5q6 -13 12 -19t18 -6q23 0 36 15.5t13 43.5t-15.5 45t-43.5 17h-9v24h9q21 0 32.5 13.5t11.5 32.5t-11.5 30.5t-32.5 11.5q-19 0 -33 -14t-15 -39l-18 2q3 36 27 56.5t63 20.5t62 -17.5t23 -43.5
q0 -20 -12 -35t-34 -22v-3q27 -5 45 -24.5t18 -46.5q0 -41 -30.5 -67t-85.5 -26q-34 0 -60 12.5z" />
    <glyph glyph-name="acute" unicode="&#xb4;" horiz-adv-x="409" 
d="M232 717q14 18 27.5 26.5t32.5 8.5t32 -12.5t13 -29.5q0 -19 -10 -32t-27 -24l-129 -89l-34 28z" />
    <glyph glyph-name="uni00B5" unicode="&#xb5;" horiz-adv-x="638" 
d="M582.5 -10q-31.5 -9 -57.5 -9q-49 0 -76.5 19.5t-32.5 65.5h-4q-61 -84 -162 -84q-37 0 -61 8q5 -11 9 -19t7 -15q17 -32 25 -53.5t8 -39.5q0 -40 -24 -61t-61 -21q-36 0 -60.5 24t-24.5 64v603h134v-292q0 -59 27.5 -87.5t77.5 -28.5q45 0 76.5 33t31.5 82v293h133
l1 -368q0 -47 32 -47q19 0 36 10l14 -54q-17 -14 -48.5 -23z" />
    <glyph glyph-name="paragraph" unicode="&#xb6;" horiz-adv-x="405" 
d="M-25.5 -182q-41.5 27 -41.5 67q0 25 17 41t41 16t37.5 -11t29.5 -33t30 -33t37 -11q54 0 86.5 37.5t32.5 125.5v334q-72 0 -121.5 24t-74 64t-24.5 89q0 50 25.5 89.5t71.5 61t105 21.5h158l5 -26q-26 -7 -43 -27.5t-17 -51.5v-547q0 -132 -66.5 -194.5t-174.5 -62.5
q-72 0 -113.5 27z" />
    <glyph glyph-name="periodcentered" unicode="&#xb7;" horiz-adv-x="272" 
d="M70 310.5q-27 25.5 -27 66.5q0 40 27 65.5t66 25.5t65.5 -25.5t26.5 -65.5q0 -41 -26.5 -66.5t-65.5 -25.5t-66 25.5z" />
    <glyph glyph-name="cedilla" unicode="&#xb8;" horiz-adv-x="547" 
d="M177.5 -212q-34.5 21 -34.5 49q0 15 10 26t25 11q17 0 25.5 -7.5t16.5 -22.5q9 -17 19 -26t33 -9q27 0 42.5 13t15.5 36q0 14 -10.5 23t-27.5 9q-21 0 -36 -12l-31 14l58 134l52 -22l-31 -68q10 5 27 5q37 0 59 -18t22 -50q0 -27 -18.5 -51.5t-52 -39.5t-77.5 -15
q-52 0 -86.5 21z" />
    <glyph glyph-name="uni00B9" unicode="&#xb9;" horiz-adv-x="225" 
d="M80 474v172h-28l-3 16l79 38h20v-226q0 -25 28 -32l-3 -14h-119l-3 14q29 7 29 32z" />
    <glyph glyph-name="ordmasculine" unicode="&#xba;" horiz-adv-x="271" 
d="M47.5 506q-33.5 35 -33.5 90q0 54 33.5 88.5t87.5 34.5q55 0 88.5 -35t33.5 -90t-33 -89t-87 -34q-56 0 -89.5 35zM182.5 522q11.5 18 11.5 45q0 21 -8.5 49.5t-25 49t-38.5 20.5t-34 -17.5t-12 -46.5q0 -21 9 -49t26 -48.5t39 -20.5q21 0 32.5 18zM251 444v-46h-228v46
h228z" />
    <glyph glyph-name="guillemotright" unicode="&#xbb;" horiz-adv-x="546" 
d="M153 240l-107 222l34 23l205 -218v-53l-205 -218l-34 22zM368 240l-107 222l34 23l205 -218v-53l-205 -218l-34 22z" />
    <glyph glyph-name="onequarter" unicode="&#xbc;" horiz-adv-x="311" 
d="M91 662l79 38h20v-226q0 -25 28 -32l-3 -14h-119l-3 14q29 7 29 32v172h-28zM319 326h-326v49h326v-49zM252 91l-6 -26h-37v-19q0 -25 28 -32l-2 -14h-121l-2 14q28 7 28 32v19h-114v20l134 186h49v-180h43zM140 197h-2l-76 -104v-2h78v106z" />
    <glyph glyph-name="onehalf" unicode="&#xbd;" horiz-adv-x="311" 
d="M91 662l79 38h20v-226q0 -25 28 -32l-3 -14h-119l-3 14q29 7 29 32v172h-28zM319 326h-326v49h326v-49zM249 84l15 -7l-26 -85h-5q-7 3 -24 5.5t-30 2.5h-116v35q57 41 88 78t31 85q0 25 -12.5 39.5t-33.5 14.5q-22 0 -38.5 -17.5t-17.5 -48.5l-20 3q1 41 27.5 65.5
t66.5 24.5q42 0 69 -22t27 -59q0 -48 -34 -82t-92 -65v-1h34q65 0 91 34z" />
    <glyph glyph-name="threequarters" unicode="&#xbe;" horiz-adv-x="311" 
d="M81 434.5q-26 12.5 -26 35.5q0 13 6.5 20.5t19.5 7.5t19 -6.5t11 -18.5q6 -13 12 -19t18 -6q23 0 36 15.5t13 43.5t-15.5 45t-43.5 17h-9v24h9q21 0 32.5 13.5t11.5 32.5t-11.5 30.5t-32.5 11.5q-19 0 -33 -14t-15 -39l-18 2q3 36 27 56.5t63 20.5t62 -17.5t23 -43.5
q0 -20 -12 -35t-34 -22v-3q27 -5 45 -24.5t18 -46.5q0 -41 -30.5 -67t-85.5 -26q-34 0 -60 12.5zM319 326h-326v49h326v-49zM252 91l-6 -26h-37v-19q0 -25 28 -32l-2 -14h-121l-2 14q28 7 28 32v19h-114v20l134 186h49v-180h43zM140 197h-2l-76 -104v-2h78v106z" />
    <glyph glyph-name="questiondown" unicode="&#xbf;" horiz-adv-x="508" 
d="M319 561.5q-27 25.5 -27 65.5q0 41 27 66.5t66 25.5t66 -25.5t27 -66.5q0 -40 -27 -65.5t-66 -25.5t-66 25.5zM233 18.5q-68 37.5 -110.5 96t-42.5 115.5q0 70 36.5 107.5t93.5 50t137 13.5v73h81v-184h-42q-97 0 -157.5 -15.5t-60.5 -68.5q0 -35 22.5 -72.5t58.5 -62
t75 -24.5q30 0 45 12.5t32 38.5q15 26 30.5 39t46.5 13q27 0 45.5 -19.5t18.5 -46.5q0 -49 -47 -76t-121 -27q-73 0 -141 37.5z" />
    <glyph glyph-name="Agrave" unicode="&#xc0;" horiz-adv-x="683" 
d="M159 856q-10 13 -10 32q0 17 13.5 29.5t33.5 12.5q19 0 31 -8.5t27 -26.5l96 -125l-35 -27l-129 89q-17 11 -27 24zM646.5 59.5q21.5 -19.5 45.5 -25.5l-6 -34h-253l-6 34q27 8 27 40q0 18 -8 37l-25 65h-259l-25 -65q-8 -19 -8 -37q0 -31 28 -40l-6 -34h-154l-6 34
q24 6 46 25.5t34 51.5l186 477q-20 28 -57 53l4 34q43 3 87 14t73 31h8l240 -609q13 -32 34.5 -51.5zM293 505h-4l-100 -258h204z" />
    <glyph glyph-name="Aacute" unicode="&#xc1;" horiz-adv-x="683" 
d="M262 771l96 124q15 19 27.5 27.5t31.5 8.5t32.5 -13t13.5 -30q0 -19 -10 -32t-27 -24l-129 -89zM646.5 59.5q21.5 -19.5 45.5 -25.5l-6 -34h-253l-6 34q27 8 27 40q0 18 -8 37l-25 65h-259l-25 -65q-8 -19 -8 -37q0 -31 28 -40l-6 -34h-154l-6 34q24 6 46 25.5t34 51.5
l186 477q-20 28 -57 53l4 34q43 3 87 14t73 31h8l240 -609q13 -32 34.5 -51.5zM293 505h-4l-100 -258h204z" />
    <glyph glyph-name="Acircumflex" unicode="&#xc2;" horiz-adv-x="683" 
d="M180 774l161 137l161 -137l-22 -36l-139 62l-138 -62zM646.5 59.5q21.5 -19.5 45.5 -25.5l-6 -34h-253l-6 34q27 8 27 40q0 18 -8 37l-25 65h-259l-25 -65q-8 -19 -8 -37q0 -31 28 -40l-6 -34h-154l-6 34q24 6 46 25.5t34 51.5l186 477q-20 28 -57 53l4 34q43 3 87 14
t73 31h8l240 -609q13 -32 34.5 -51.5zM293 505h-4l-100 -258h204z" />
    <glyph glyph-name="Atilde" unicode="&#xc3;" horiz-adv-x="683" 
d="M245.5 830.5q-11.5 -9.5 -15.5 -29.5l-45 12q7 56 33 81t61 25q20 0 37.5 -7.5t40.5 -21.5q22 -12 33 -17t23 -5q14 0 25 9t16 29l43 -11q-6 -56 -32.5 -81.5t-61.5 -25.5q-20 0 -37.5 7.5t-39.5 21.5q-18 11 -30.5 17t-24.5 6q-14 0 -25.5 -9.5zM646.5 59.5
q21.5 -19.5 45.5 -25.5l-6 -34h-253l-6 34q27 8 27 40q0 18 -8 37l-25 65h-259l-25 -65q-8 -19 -8 -37q0 -31 28 -40l-6 -34h-154l-6 34q24 6 46 25.5t34 51.5l186 477q-20 28 -57 53l4 34q43 3 87 14t73 31h8l240 -609q13 -32 34.5 -51.5zM293 505h-4l-100 -258h204z" />
    <glyph glyph-name="Adieresis" unicode="&#xc4;" horiz-adv-x="683" 
d="M191.5 795q-19.5 20 -19.5 46q0 28 19.5 48.5t51.5 20.5t52 -20.5t20 -48.5q0 -26 -20 -46t-52 -20t-51.5 20zM387.5 795q-19.5 20 -19.5 46q0 28 19.5 48.5t51.5 20.5t51.5 -20.5t19.5 -48.5q0 -26 -19.5 -46t-51.5 -20t-51.5 20zM646.5 59.5q21.5 -19.5 45.5 -25.5
l-6 -34h-253l-6 34q27 8 27 40q0 18 -8 37l-25 65h-259l-25 -65q-8 -19 -8 -37q0 -31 28 -40l-6 -34h-154l-6 34q24 6 46 25.5t34 51.5l186 477q-20 28 -57 53l4 34q43 3 87 14t73 31h8l240 -609q13 -32 34.5 -51.5zM293 505h-4l-100 -258h204z" />
    <glyph glyph-name="Aring" unicode="&#xc5;" horiz-adv-x="683" 
d="M250.5 781q-31.5 31 -31.5 75t31.5 75t75.5 31t75.5 -31t31.5 -75t-31.5 -75t-75.5 -31t-75.5 31zM291 891.5q-14 -14.5 -14 -35.5q0 -22 14 -36.5t35 -14.5t36 14.5t15 36.5q0 21 -15 35.5t-36 14.5t-35 -14.5zM646.5 59.5q21.5 -19.5 45.5 -25.5l-6 -34h-253l-6 34
q27 8 27 40q0 18 -8 37l-25 65h-259l-25 -65q-8 -19 -8 -37q0 -31 28 -40l-6 -34h-154l-6 34q24 6 46 25.5t34 51.5l186 477q-20 28 -57 53l4 34q43 3 87 14t73 31h8l240 -609q13 -32 34.5 -51.5zM293 505h-4l-100 -258h204z" />
    <glyph glyph-name="AE" unicode="&#xc6;" horiz-adv-x="1116" 
d="M1029 -18h-13q-15 8 -59 13t-81 5h-396l-6 33q23 6 36.5 26.5t13.5 52.5v64h-282l-47 -65q-24 -31 -24 -53q0 -18 17 -25l-6 -33h-166l-6 33q26 6 53.5 26t51.5 52l391 536q-13 14 -32 19l6 34h529l40 -159l-36 -13q-23 44 -81 75t-146 31q-55 0 -105 -10v-231h185
q32 0 53.5 14t26.5 38l35 -6l-1 -158l-34 -6q-5 24 -26.5 38t-52.5 14h-186v-251q75 -11 133 -11q81 0 142 36.5t93 88.5l37 -17zM524 558h-5l-225 -310h230v310z" />
    <glyph glyph-name="Ccedilla" unicode="&#xc7;" horiz-adv-x="690" 
d="M584.5 64q-66.5 -73 -180.5 -82l-21 -46q10 5 27 5q37 0 59.5 -18t22.5 -50q0 -27 -18.5 -51.5t-52.5 -39.5t-78 -15q-52 0 -86 20.5t-34 49.5q0 15 10 26t25 11q17 0 25 -7.5t16 -22.5q9 -17 19 -26t33 -9q27 0 42.5 13t15.5 36q0 14 -10.5 23t-27.5 9q-22 0 -35 -12
l-32 14l39 90q-94 8 -164 57.5t-107 130t-37 179.5q0 103 44.5 187.5t122.5 133.5t176 49q37 0 90 -11q40 -8 55 -8q27 0 49.5 6.5t31.5 12.5h12l43 -227l-41 -8q-27 75 -83.5 122.5t-140.5 47.5q-50 0 -97 -30t-77 -87t-30 -132q0 -99 34.5 -171.5t90.5 -110.5t120 -38
q78 0 123 49.5t68 117.5l41 -11q-16 -104 -82.5 -177z" />
    <glyph glyph-name="Egrave" unicode="&#xc8;" horiz-adv-x="639" 
d="M218 888q0 17 12.5 29.5t32.5 12.5q19 0 32.5 -8.5t26.5 -26.5l97 -125l-35 -27l-130 89q-36 23 -36 56zM578 -18h-12q-15 8 -59.5 13t-81.5 5h-396l-6 33q23 6 37 26.5t14 52.5v476q0 32 -14 52t-37 26l6 34h528l41 -159l-35 -13q-24 45 -82 76t-147 31q-54 0 -104 -10
v-232h186q32 0 53.5 14.5t26.5 37.5l34 -6v-158l-34 -6q-6 24 -27 38t-53 14h-186v-251q75 -11 133 -11q82 0 143 36.5t93 88.5l36 -17z" />
    <glyph glyph-name="Eacute" unicode="&#xc9;" horiz-adv-x="639" 
d="M220 771l96 124q13 18 26.5 26.5t33.5 8.5q19 0 31.5 -12.5t12.5 -29.5q0 -33 -36 -56l-130 -89zM578 -18h-12q-15 8 -59.5 13t-81.5 5h-396l-6 33q23 6 37 26.5t14 52.5v476q0 32 -14 52t-37 26l6 34h528l41 -159l-35 -13q-24 45 -82 76t-147 31q-54 0 -104 -10v-232
h186q32 0 53.5 14.5t26.5 37.5l34 -6v-158l-34 -6q-6 24 -27 38t-53 14h-186v-251q75 -11 133 -11q82 0 143 36.5t93 88.5l36 -17z" />
    <glyph glyph-name="Ecircumflex" unicode="&#xca;" horiz-adv-x="639" 
d="M158 774l162 137l161 -137l-23 -36l-138 62l-139 -62zM578 -18h-12q-15 8 -59.5 13t-81.5 5h-396l-6 33q23 6 37 26.5t14 52.5v476q0 32 -14 52t-37 26l6 34h528l41 -159l-35 -13q-24 45 -82 76t-147 31q-54 0 -104 -10v-232h186q32 0 53.5 14.5t26.5 37.5l34 -6v-158
l-34 -6q-6 24 -27 38t-53 14h-186v-251q75 -11 133 -11q82 0 143 36.5t93 88.5l36 -17z" />
    <glyph glyph-name="Edieresis" unicode="&#xcb;" horiz-adv-x="639" 
d="M169.5 795q-19.5 20 -19.5 46q0 28 19.5 48.5t51.5 20.5t52 -20.5t20 -48.5q0 -26 -20 -46t-52 -20t-51.5 20zM365.5 795q-19.5 20 -19.5 46q0 28 19.5 48.5t51.5 20.5t51.5 -20.5t19.5 -48.5q0 -26 -19.5 -46t-51.5 -20t-51.5 20zM578 -18h-12q-15 8 -59.5 13t-81.5 5
h-396l-6 33q23 6 37 26.5t14 52.5v476q0 32 -14 52t-37 26l6 34h528l41 -159l-35 -13q-24 45 -82 76t-147 31q-54 0 -104 -10v-232h186q32 0 53.5 14.5t26.5 37.5l34 -6v-158l-34 -6q-6 24 -27 38t-53 14h-186v-251q75 -11 133 -11q82 0 143 36.5t93 88.5l36 -17z" />
    <glyph glyph-name="Igrave" unicode="&#xcc;" horiz-adv-x="304" 
d="M11 888q0 17 12.5 29.5t32.5 12.5q19 0 32.5 -8.5t26.5 -26.5l97 -125l-35 -27l-130 89q-36 23 -36 56zM60 60q14 20 14 52v476q0 32 -14 52t-37 26l6 34h246l6 -34q-23 -6 -37 -26t-14 -52v-476q0 -32 14 -52t37 -26l-6 -34h-246l-6 34q23 6 37 26z" />
    <glyph glyph-name="Iacute" unicode="&#xcd;" horiz-adv-x="304" 
d="M193 895q13 18 26.5 26.5t33.5 8.5q19 0 31.5 -12.5t12.5 -29.5q0 -33 -36 -56l-130 -89l-34 28zM60 60q14 20 14 52v476q0 32 -14 52t-37 26l6 34h246l6 -34q-23 -6 -37 -26t-14 -52v-476q0 -32 14 -52t37 -26l-6 -34h-246l-6 34q23 6 37 26z" />
    <glyph glyph-name="Icircumflex" unicode="&#xce;" horiz-adv-x="304" 
d="M153 911l161 -137l-23 -36l-138 62l-139 -62l-23 36zM60 60q14 20 14 52v476q0 32 -14 52t-37 26l6 34h246l6 -34q-23 -6 -37 -26t-14 -52v-476q0 -32 14 -52t37 -26l-6 -34h-246l-6 34q23 6 37 26z" />
    <glyph glyph-name="Idieresis" unicode="&#xcf;" horiz-adv-x="304" 
d="M2.5 795q-19.5 20 -19.5 46q0 28 19.5 48.5t51.5 20.5t52 -20.5t20 -48.5q0 -26 -20 -46t-52 -20t-51.5 20zM198.5 795q-19.5 20 -19.5 46q0 28 19.5 48.5t51.5 20.5t51.5 -20.5t19.5 -48.5q0 -26 -19.5 -46t-51.5 -20t-51.5 20zM60 60q14 20 14 52v476q0 32 -14 52
t-37 26l6 34h246l6 -34q-23 -6 -37 -26t-14 -52v-476q0 -32 14 -52t37 -26l-6 -34h-246l-6 34q23 6 37 26z" />
    <glyph glyph-name="Eth" unicode="&#xd0;" horiz-adv-x="757" 
d="M538 652.5q86 -47.5 136 -131t50 -187.5q0 -111 -44.5 -186t-122.5 -111.5t-179 -36.5h-321l-6 33q23 6 37 26.5t14 52.5v201h-114v73h114v202q0 32 -14 52t-37 26l6 34h290q105 0 191 -47.5zM481 99q45 34 66.5 88.5t21.5 117.5q0 87 -29 162.5t-86 121.5t-138 46
q-30 0 -58 -3v-246h113l1 -73h-114v-236q53 -12 111 -12q67 0 112 34z" />
    <glyph glyph-name="Ntilde" unicode="&#xd1;" horiz-adv-x="697" 
d="M252.5 830.5q-11.5 -9.5 -15.5 -29.5l-45 12q7 56 33 81t61 25q20 0 37.5 -7.5t40.5 -21.5q22 -12 33 -17t23 -5q14 0 25 9t16 29l43 -11q-6 -56 -32.5 -81.5t-61.5 -25.5q-20 0 -37.5 7.5t-39.5 21.5q-18 11 -30.5 17t-24.5 6q-14 0 -25.5 -9.5zM643.5 640
q-14.5 -20 -14.5 -52v-588h-78q-17 50 -47 93t-64 76.5t-91 84.5q-78 69 -125.5 120t-80.5 118h-4v-380q0 -32 14 -52t37 -26l-6 -34h-155l-6 34q23 5 36.5 25t13.5 53v476q0 33 -13.5 53t-36.5 25l6 34h141q44 -81 97 -142t131 -136q68 -66 104 -107t58 -90h5v363
q0 32 -14 52t-37 26l6 34h155l6 -34q-23 -6 -37.5 -26z" />
    <glyph glyph-name="Ograve" unicode="&#xd2;" horiz-adv-x="762" 
d="M221 856q-10 13 -10 32q0 17 13 29.5t32 12.5t32 -8.5t28 -26.5l96 -125l-35 -27l-129 89q-17 11 -27 24zM210 29q-80 48 -127.5 131.5t-47.5 187.5q0 108 42.5 192.5t120.5 131.5t182 47q94 0 173.5 -48.5t126.5 -134t47 -191.5q0 -104 -44.5 -187t-123 -130t-175.5 -47
q-94 0 -174 48zM500 75q35 30 54 78.5t19 102.5q0 90 -30 183t-84.5 154t-124.5 61q-46 0 -81 -29t-54 -78t-19 -106q0 -95 30 -187t84.5 -150.5t124.5 -58.5q46 0 81 30z" />
    <glyph glyph-name="Oacute" unicode="&#xd3;" horiz-adv-x="762" 
d="M434 895q15 18 28 26.5t32 8.5t32 -12.5t13 -29.5q0 -19 -10 -32t-27 -24l-129 -89l-35 28zM210 29q-80 48 -127.5 131.5t-47.5 187.5q0 108 42.5 192.5t120.5 131.5t182 47q94 0 173.5 -48.5t126.5 -134t47 -191.5q0 -104 -44.5 -187t-123 -130t-175.5 -47
q-94 0 -174 48zM500 75q35 30 54 78.5t19 102.5q0 90 -30 183t-84.5 154t-124.5 61q-46 0 -81 -29t-54 -78t-19 -106q0 -95 30 -187t84.5 -150.5t124.5 -58.5q46 0 81 30z" />
    <glyph glyph-name="Ocircumflex" unicode="&#xd4;" horiz-adv-x="762" 
d="M381 911l161 -137l-22 -36l-139 62l-138 -62l-23 36zM210 29q-80 48 -127.5 131.5t-47.5 187.5q0 108 42.5 192.5t120.5 131.5t182 47q94 0 173.5 -48.5t126.5 -134t47 -191.5q0 -104 -44.5 -187t-123 -130t-175.5 -47q-94 0 -174 48zM500 75q35 30 54 78.5t19 102.5
q0 90 -30 183t-84.5 154t-124.5 61q-46 0 -81 -29t-54 -78t-19 -106q0 -95 30 -187t84.5 -150.5t124.5 -58.5q46 0 81 30z" />
    <glyph glyph-name="Otilde" unicode="&#xd5;" horiz-adv-x="762" 
d="M405.5 795.5q-17.5 7.5 -39.5 21.5q-18 12 -30.5 17.5t-25.5 5.5t-24.5 -9.5t-15.5 -29.5l-45 12q6 55 32.5 80.5t61.5 25.5q20 0 36.5 -7t41.5 -21q18 -12 30.5 -17.5t25.5 -5.5q14 0 25 9t16 29l43 -11q-7 -56 -33 -81.5t-61 -25.5q-20 0 -37.5 7.5zM210 29
q-80 48 -127.5 131.5t-47.5 187.5q0 108 42.5 192.5t120.5 131.5t182 47q94 0 173.5 -48.5t126.5 -134t47 -191.5q0 -104 -44.5 -187t-123 -130t-175.5 -47q-94 0 -174 48zM500 75q35 30 54 78.5t19 102.5q0 90 -30 183t-84.5 154t-124.5 61q-46 0 -81 -29t-54 -78t-19 -106
q0 -95 30 -187t84.5 -150.5t124.5 -58.5q46 0 81 30z" />
    <glyph glyph-name="Odieresis" unicode="&#xd6;" horiz-adv-x="762" 
d="M231.5 795q-19.5 20 -19.5 46q0 28 19.5 48.5t51.5 20.5t51.5 -20.5t19.5 -48.5q0 -26 -19.5 -46t-51.5 -20t-51.5 20zM426.5 795q-19.5 20 -19.5 46q0 28 19.5 48.5t51.5 20.5t52 -20.5t20 -48.5q0 -26 -20 -46t-52 -20t-51.5 20zM210 29q-80 48 -127.5 131.5
t-47.5 187.5q0 108 42.5 192.5t120.5 131.5t182 47q94 0 173.5 -48.5t126.5 -134t47 -191.5q0 -104 -44.5 -187t-123 -130t-175.5 -47q-94 0 -174 48zM500 75q35 30 54 78.5t19 102.5q0 90 -30 183t-84.5 154t-124.5 61q-46 0 -81 -29t-54 -78t-19 -106q0 -95 30 -187
t84.5 -150.5t124.5 -58.5q46 0 81 30z" />
    <glyph glyph-name="multiply" unicode="&#xd7;" horiz-adv-x="579" 
d="M245 350l-180 173l44 42l179 -173l181 173l44 -42l-181 -173l181 -174l-44 -42l-181 174l-179 -174l-44 42z" />
    <glyph glyph-name="Oslash" unicode="&#xd8;" horiz-adv-x="762" 
d="M675.5 522q39.5 -80 39.5 -176q0 -104 -44.5 -187.5t-123 -130.5t-175.5 -47q-82 0 -153 37l-39 -71l-51 29l40 72q-68 50 -107 128.5t-39 171.5q0 108 42.5 192.5t120.5 131.5t182 47q79 0 151 -36l38 70l52 -27l-41 -74q68 -50 107.5 -130zM185.5 297.5
q17.5 -71.5 49.5 -128.5l225 408q-60 78 -138 78q-46 0 -81 -29t-54 -78.5t-19 -106.5q0 -72 17.5 -143.5zM488 75q35 30 54.5 79t19.5 103q0 66 -17 136.5t-48 128.5l-225 -407q60 -70 135 -70q46 0 81 30z" />
    <glyph glyph-name="Ugrave" unicode="&#xd9;" horiz-adv-x="660" 
d="M199 856q-10 13 -10 32q0 17 12.5 29.5t32.5 12.5q19 0 32.5 -8.5t27.5 -26.5l96 -125l-35 -27l-129 89q-17 11 -27 24zM179 10.5q-69 29.5 -109 87.5t-40 141q0 20 1 30l28 319q3 32 -9 52t-34 26l6 34h247l6 -34q-24 -6 -39.5 -26t-18.5 -52l-28 -318q-1 -9 -1 -26
q0 -59 24 -103.5t66 -69t94 -24.5q86 0 138 53.5t52 143.5q0 17 -1 26l-27 316q-3 32 -19.5 53.5t-40.5 26.5l6 34h158l6 -34q-23 -6 -35 -27t-10 -53l28 -317q1 -9 1 -27q0 -79 -38 -138t-105 -91t-152 -32t-154 29.5z" />
    <glyph glyph-name="Uacute" unicode="&#xda;" horiz-adv-x="660" 
d="M401 895q14 18 27.5 26.5t32.5 8.5t32 -12.5t13 -29.5q0 -19 -10 -32t-27 -24l-129 -89l-34 28zM179 10.5q-69 29.5 -109 87.5t-40 141q0 20 1 30l28 319q3 32 -9 52t-34 26l6 34h247l6 -34q-24 -6 -39.5 -26t-18.5 -52l-28 -318q-1 -9 -1 -26q0 -59 24 -103.5t66 -69
t94 -24.5q86 0 138 53.5t52 143.5q0 17 -1 26l-27 316q-3 32 -19.5 53.5t-40.5 26.5l6 34h158l6 -34q-23 -6 -35 -27t-10 -53l28 -317q1 -9 1 -27q0 -79 -38 -138t-105 -91t-152 -32t-154 29.5z" />
    <glyph glyph-name="Ucircumflex" unicode="&#xdb;" horiz-adv-x="660" 
d="M330 911l161 -137l-23 -36l-138 62l-139 -62l-23 36zM179 10.5q-69 29.5 -109 87.5t-40 141q0 20 1 30l28 319q3 32 -9 52t-34 26l6 34h247l6 -34q-24 -6 -39.5 -26t-18.5 -52l-28 -318q-1 -9 -1 -26q0 -59 24 -103.5t66 -69t94 -24.5q86 0 138 53.5t52 143.5q0 17 -1 26
l-27 316q-3 32 -19.5 53.5t-40.5 26.5l6 34h158l6 -34q-23 -6 -35 -27t-10 -53l28 -317q1 -9 1 -27q0 -79 -38 -138t-105 -91t-152 -32t-154 29.5z" />
    <glyph glyph-name="Udieresis" unicode="&#xdc;" horiz-adv-x="660" 
d="M180 794.5q-19 19.5 -19 46.5q0 29 19 49t52 20q32 0 51.5 -20.5t19.5 -48.5q0 -26 -19.5 -46t-51.5 -20q-33 0 -52 19.5zM375.5 795q-19.5 20 -19.5 46q0 28 19.5 48.5t51.5 20.5t51.5 -20.5t19.5 -48.5q0 -26 -19.5 -46t-51.5 -20t-51.5 20zM179 10.5
q-69 29.5 -109 87.5t-40 141q0 20 1 30l28 319q3 32 -9 52t-34 26l6 34h247l6 -34q-24 -6 -39.5 -26t-18.5 -52l-28 -318q-1 -9 -1 -26q0 -59 24 -103.5t66 -69t94 -24.5q86 0 138 53.5t52 143.5q0 17 -1 26l-27 316q-3 32 -19.5 53.5t-40.5 26.5l6 34h158l6 -34
q-23 -6 -35 -27t-10 -53l28 -317q1 -9 1 -27q0 -79 -38 -138t-105 -91t-152 -32t-154 29.5z" />
    <glyph glyph-name="Yacute" unicode="&#xdd;" horiz-adv-x="654" 
d="M421 895q14 18 27.5 26.5t33.5 8.5q19 0 31.5 -12.5t12.5 -29.5q0 -19 -10 -32t-27 -24l-129 -89l-34 28zM234 60q14 20 14 52v217l-167 259q-42 68 -90 78l5 34h271l6 -34q-12 -3 -19.5 -12t-7.5 -23q0 -20 15 -43l115 -174h7l114 174q16 25 16 43q0 14 -7.5 23
t-19.5 12l6 34h165l6 -34q-25 -5 -47 -24.5t-43 -53.5l-169 -260v-216q0 -32 14 -52t37 -26l-6 -34h-246l-5 34q22 6 36 26z" />
    <glyph glyph-name="Thorn" unicode="&#xde;" horiz-adv-x="674" 
d="M581.5 501q75.5 -55 75.5 -151t-75.5 -151.5t-208.5 -55.5h-141v-31q0 -32 14.5 -52.5t36.5 -26.5l-6 -33h-245l-6 33q22 6 36.5 26.5t14.5 52.5v476q0 32 -14.5 52t-36.5 26l6 34h245l6 -34q-22 -6 -36.5 -26t-14.5 -52v-32h141q133 0 208.5 -55zM449.5 246
q49.5 37 49.5 104q0 68 -48.5 104.5t-132.5 36.5q-52 0 -86 -6v-269q40 -7 86 -7q82 0 131.5 37z" />
    <glyph glyph-name="germandbls" unicode="&#xdf;" horiz-adv-x="726" 
d="M646 281q27 -26 42.5 -57.5t15.5 -68.5q0 -87 -60 -130.5t-160 -43.5q-61 0 -106 18.5t-45 58.5q0 25 16.5 39.5t40.5 14.5q27 0 40 -10t26 -31q10 -15 19 -23t25 -8q36 0 54.5 20.5t18.5 57.5q0 29 -23 58t-44 48.5t-26 24.5t-34 33t-47 60t-18 64q0 46 34.5 79.5
t93.5 36.5q4 9 7.5 23.5t3.5 27.5q0 48 -29 80.5t-82 32.5q-81 0 -115 -56.5t-34 -154.5v-363q0 -32 14 -52.5t37 -26.5l-6 -33h-242l-6 33q23 6 37 26.5t14 52.5v340h-105v70h108q14 115 88.5 176t207.5 61q62 0 120 -23t94.5 -64.5t36.5 -94.5q0 -24 -7 -48t-19 -39
q-41 -5 -66.5 -25.5t-25.5 -54.5q0 -22 13 -38.5t40 -40.5l19 -17q7 -7 34 -33z" />
    <glyph glyph-name="agrave" unicode="&#xe0;" horiz-adv-x="565" 
d="M109 710q0 17 12.5 29.5t32.5 12.5q19 0 32.5 -8.5t26.5 -26.5l96 -125l-34 -27l-130 89q-36 23 -36 56zM540 -9.5q-29 -9.5 -56 -9.5q-41 0 -73.5 20t-44.5 67h-5q-25 -45 -70.5 -66t-94.5 -21q-74 0 -123 39t-49 105q0 63 42 103t106 61.5t157 38.5l-10 71
q-4 36 -24.5 57t-49.5 21t-48 -17t-16 -43q1 -5 1 -14q0 -26 -18.5 -42t-44.5 -16q-30 0 -47 18t-17 50q1 32 23.5 61t67.5 48t109 19q83 0 141.5 -47t69.5 -140l27 -232q5 -38 18.5 -59t34.5 -21q12 0 30 8l12 -30q-19 -20 -48 -29.5zM303 75.5q23 15.5 36 41t12 53.5
l-16 114q-79 -16 -125.5 -48.5t-46.5 -86.5q0 -41 25.5 -65t65.5 -24q26 0 49 15.5z" />
    <glyph glyph-name="aacute" unicode="&#xe1;" horiz-adv-x="565" 
d="M216 593l96 124q15 18 28 26.5t32 8.5t32 -12.5t13 -29.5q0 -19 -10 -32t-27 -24l-129 -89zM540 -9.5q-29 -9.5 -56 -9.5q-41 0 -73.5 20t-44.5 67h-5q-25 -45 -70.5 -66t-94.5 -21q-74 0 -123 39t-49 105q0 63 42 103t106 61.5t157 38.5l-10 71q-4 36 -24.5 57t-49.5 21
t-48 -17t-16 -43q1 -5 1 -14q0 -26 -18.5 -42t-44.5 -16q-30 0 -47 18t-17 50q1 32 23.5 61t67.5 48t109 19q83 0 141.5 -47t69.5 -140l27 -232q5 -38 18.5 -59t34.5 -21q12 0 30 8l12 -30q-19 -20 -48 -29.5zM303 75.5q23 15.5 36 41t12 53.5l-16 114q-79 -16 -125.5 -48.5
t-46.5 -86.5q0 -41 25.5 -65t65.5 -24q26 0 49 15.5z" />
    <glyph glyph-name="acircumflex" unicode="&#xe2;" horiz-adv-x="565" 
d="M106 596l162 137l161 -137l-23 -36l-138 62l-138 -62zM540 -9.5q-29 -9.5 -56 -9.5q-41 0 -73.5 20t-44.5 67h-5q-25 -45 -70.5 -66t-94.5 -21q-74 0 -123 39t-49 105q0 63 42 103t106 61.5t157 38.5l-10 71q-4 36 -24.5 57t-49.5 21t-48 -17t-16 -43q1 -5 1 -14
q0 -26 -18.5 -42t-44.5 -16q-30 0 -47 18t-17 50q1 32 23.5 61t67.5 48t109 19q83 0 141.5 -47t69.5 -140l27 -232q5 -38 18.5 -59t34.5 -21q12 0 30 8l12 -30q-19 -20 -48 -29.5zM303 75.5q23 15.5 36 41t12 53.5l-16 114q-79 -16 -125.5 -48.5t-46.5 -86.5q0 -41 25.5 -65
t65.5 -24q26 0 49 15.5z" />
    <glyph glyph-name="atilde" unicode="&#xe3;" horiz-adv-x="565" 
d="M188.5 652.5q-11.5 -9.5 -15.5 -29.5l-45 12q6 55 32.5 80.5t61.5 25.5q20 0 36.5 -7t41.5 -21q18 -12 30.5 -17.5t25.5 -5.5q14 0 25 9t15 29l43 -11q-6 -56 -32 -81.5t-62 -25.5q-20 0 -37 7.5t-39 21.5q-18 12 -30.5 17.5t-25.5 5.5t-24.5 -9.5zM540 -9.5
q-29 -9.5 -56 -9.5q-41 0 -73.5 20t-44.5 67h-5q-25 -45 -70.5 -66t-94.5 -21q-74 0 -123 39t-49 105q0 63 42 103t106 61.5t157 38.5l-10 71q-4 36 -24.5 57t-49.5 21t-48 -17t-16 -43q1 -5 1 -14q0 -26 -18.5 -42t-44.5 -16q-30 0 -47 18t-17 50q1 32 23.5 61t67.5 48
t109 19q83 0 141.5 -47t69.5 -140l27 -232q5 -38 18.5 -59t34.5 -21q12 0 30 8l12 -30q-19 -20 -48 -29.5zM303 75.5q23 15.5 36 41t12 53.5l-16 114q-79 -16 -125.5 -48.5t-46.5 -86.5q0 -41 25.5 -65t65.5 -24q26 0 49 15.5z" />
    <glyph glyph-name="adieresis" unicode="&#xe4;" horiz-adv-x="565" 
d="M134 616.5q-19 19.5 -19 46.5q0 29 19 49t52 20q32 0 51.5 -20.5t19.5 -48.5q0 -26 -19.5 -46t-51.5 -20q-33 0 -52 19.5zM329.5 617q-19.5 20 -19.5 46q0 28 19.5 48.5t51.5 20.5t51.5 -20.5t19.5 -48.5q0 -26 -19.5 -46t-51.5 -20t-51.5 20zM540 -9.5
q-29 -9.5 -56 -9.5q-41 0 -73.5 20t-44.5 67h-5q-25 -45 -70.5 -66t-94.5 -21q-74 0 -123 39t-49 105q0 63 42 103t106 61.5t157 38.5l-10 71q-4 36 -24.5 57t-49.5 21t-48 -17t-16 -43q1 -5 1 -14q0 -26 -18.5 -42t-44.5 -16q-30 0 -47 18t-17 50q1 32 23.5 61t67.5 48
t109 19q83 0 141.5 -47t69.5 -140l27 -232q5 -38 18.5 -59t34.5 -21q12 0 30 8l12 -30q-19 -20 -48 -29.5zM303 75.5q23 15.5 36 41t12 53.5l-16 114q-79 -16 -125.5 -48.5t-46.5 -86.5q0 -41 25.5 -65t65.5 -24q26 0 49 15.5z" />
    <glyph glyph-name="aring" unicode="&#xe5;" horiz-adv-x="565" 
d="M196.5 603q-31.5 31 -31.5 75t31.5 75t75.5 31t75.5 -31t31.5 -75t-31.5 -75t-75.5 -31t-75.5 31zM237 713.5q-14 -14.5 -14 -35.5q0 -22 14 -36.5t35 -14.5t36 14.5t15 36.5q0 21 -15 35.5t-36 14.5t-35 -14.5zM540 -9.5q-29 -9.5 -56 -9.5q-41 0 -73.5 20t-44.5 67h-5
q-25 -45 -70.5 -66t-94.5 -21q-74 0 -123 39t-49 105q0 63 42 103t106 61.5t157 38.5l-10 71q-4 36 -24.5 57t-49.5 21t-48 -17t-16 -43q1 -5 1 -14q0 -26 -18.5 -42t-44.5 -16q-30 0 -47 18t-17 50q1 32 23.5 61t67.5 48t109 19q83 0 141.5 -47t69.5 -140l27 -232
q5 -38 18.5 -59t34.5 -21q12 0 30 8l12 -30q-19 -20 -48 -29.5zM303 75.5q23 15.5 36 41t12 53.5l-16 114q-79 -16 -125.5 -48.5t-46.5 -86.5q0 -41 25.5 -65t65.5 -24q26 0 49 15.5z" />
    <glyph glyph-name="ae" unicode="&#xe6;" horiz-adv-x="914" 
d="M785 114.5q40 27.5 60 63.5l29 -11q-6 -47 -37 -90t-82.5 -69.5t-117.5 -26.5q-65 0 -125 34t-96 93h-4q-23 -52 -81.5 -89.5t-123.5 -37.5q-88 0 -136 36t-48 97q0 64 45.5 100.5t113.5 53t175 29.5l-14 102q-4 35 -29 56t-59 21t-54.5 -18t-20.5 -48q0 -33 -16.5 -49
t-45.5 -16t-46.5 20t-17.5 51q0 30 21 59t63.5 47.5t102.5 18.5q55 0 106 -26t79 -74h4q36 47 88.5 73t111.5 27q82 0 138.5 -37.5t80.5 -97.5q15 -37 35 -42l8 -43l-394 -69q14 -82 64.5 -123.5t131.5 -41.5q51 0 91 27.5zM553 453.5q-28 -21.5 -44 -57.5t-16 -78v-3
l241 40q-5 50 -35.5 85t-82.5 35q-35 0 -63 -21.5zM327.5 90q36.5 29 48.5 71l-12 87q-91 -11 -146.5 -36.5t-55.5 -77.5q0 -34 25 -53.5t62 -19.5q42 0 78.5 29z" />
    <glyph glyph-name="ccedilla" unicode="&#xe7;" horiz-adv-x="552" 
d="M474.5 38.5q-51.5 -51.5 -143.5 -56.5l-21 -46q13 5 27 5q37 0 59.5 -18t22.5 -50q0 -27 -18.5 -51.5t-52.5 -39.5t-78 -15q-52 0 -86 20.5t-34 49.5q0 15 10 26t25 11q17 0 25.5 -7.5t16.5 -23.5q10 -17 19.5 -25.5t31.5 -8.5q27 0 42.5 13t15.5 36q0 14 -10.5 23
t-26.5 9q-23 0 -36 -12l-31 14l39 92q-71 9 -126.5 49t-86 100t-30.5 130q0 84 37 147t101 97t141 34q64 0 116.5 -22.5t82.5 -59t30 -76.5q0 -26 -20 -47t-47 -21q-37 0 -53 19.5t-30 58.5q-11 29 -21 46.5t-29.5 29.5t-52.5 12q-32 0 -60 -20.5t-45 -56.5t-17 -81
q0 -114 52 -175.5t146 -61.5q48 0 89.5 27.5t61.5 62.5l29 -10q-13 -76 -64.5 -127.5z" />
    <glyph glyph-name="egrave" unicode="&#xe8;" horiz-adv-x="592" 
d="M170 678q-10 13 -10 32q0 17 13 29.5t32 12.5t32 -8.5t28 -26.5l96 -125l-35 -27l-129 89q-17 11 -27 24zM457.5 114q40.5 28 59.5 64l29 -11q-6 -48 -36.5 -90.5t-82.5 -69t-118 -26.5q-80 0 -144.5 37.5t-100.5 102.5t-36 142q0 83 36.5 146t99.5 97.5t140 34.5
q82 0 139 -38t80 -98q14 -34 34 -38l7 -44l-385 -108q21 -64 69 -96.5t119 -32.5q50 0 90.5 28zM225.5 453.5q-28.5 -21.5 -44.5 -57.5t-16 -79q0 -16 2 -42l240 66q-5 53 -36 93.5t-82 40.5q-35 0 -63.5 -21.5z" />
    <glyph glyph-name="eacute" unicode="&#xe9;" horiz-adv-x="592" 
d="M215 593l96 124q13 18 26.5 26.5t33.5 8.5q19 0 31.5 -12.5t12.5 -29.5q0 -33 -36 -56l-130 -89zM457.5 114q40.5 28 59.5 64l29 -11q-6 -48 -36.5 -90.5t-82.5 -69t-118 -26.5q-80 0 -144.5 37.5t-100.5 102.5t-36 142q0 83 36.5 146t99.5 97.5t140 34.5q82 0 139 -38
t80 -98q14 -34 34 -38l7 -44l-385 -108q21 -64 69 -96.5t119 -32.5q50 0 90.5 28zM225.5 453.5q-28.5 -21.5 -44.5 -57.5t-16 -79q0 -16 2 -42l240 66q-5 53 -36 93.5t-82 40.5q-35 0 -63.5 -21.5z" />
    <glyph glyph-name="ecircumflex" unicode="&#xea;" horiz-adv-x="592" 
d="M133 596l162 137l161 -137l-23 -36l-138 62l-139 -62zM457.5 114q40.5 28 59.5 64l29 -11q-6 -48 -36.5 -90.5t-82.5 -69t-118 -26.5q-80 0 -144.5 37.5t-100.5 102.5t-36 142q0 83 36.5 146t99.5 97.5t140 34.5q82 0 139 -38t80 -98q14 -34 34 -38l7 -44l-385 -108
q21 -64 69 -96.5t119 -32.5q50 0 90.5 28zM225.5 453.5q-28.5 -21.5 -44.5 -57.5t-16 -79q0 -16 2 -42l240 66q-5 53 -36 93.5t-82 40.5q-35 0 -63.5 -21.5z" />
    <glyph glyph-name="edieresis" unicode="&#xeb;" horiz-adv-x="592" 
d="M145.5 617q-19.5 20 -19.5 46q0 28 19.5 48.5t51.5 20.5t51.5 -20.5t19.5 -48.5q0 -26 -19.5 -46t-51.5 -20t-51.5 20zM340.5 617q-19.5 20 -19.5 46q0 28 19.5 48.5t51.5 20.5t52 -20.5t20 -48.5q0 -26 -20 -46t-52 -20t-51.5 20zM457.5 114q40.5 28 59.5 64l29 -11
q-6 -48 -36.5 -90.5t-82.5 -69t-118 -26.5q-80 0 -144.5 37.5t-100.5 102.5t-36 142q0 83 36.5 146t99.5 97.5t140 34.5q82 0 139 -38t80 -98q14 -34 34 -38l7 -44l-385 -108q21 -64 69 -96.5t119 -32.5q50 0 90.5 28zM225.5 453.5q-28.5 -21.5 -44.5 -57.5t-16 -79
q0 -16 2 -42l240 66q-5 53 -36 93.5t-82 40.5q-35 0 -63.5 -21.5z" />
    <glyph glyph-name="igrave" unicode="&#xec;" 
d="M-21 710q0 17 12.5 29.5t32.5 12.5q19 0 32.5 -8.5t26.5 -26.5l97 -125l-35 -27l-130 89q-36 23 -36 56zM58 59q14 20 14 52v250q0 32 -14 52t-37 26l6 33q87 13 165 69h14v-430q0 -32 14 -52t37 -26l-6 -33h-224l-6 33q23 6 37 26z" />
    <glyph glyph-name="iacute" unicode="&#xed;" 
d="M157 717q13 18 26.5 26.5t33.5 8.5q19 0 31.5 -12.5t12.5 -29.5q0 -33 -36 -56l-130 -89l-34 28zM58 59q14 20 14 52v250q0 32 -14 52t-37 26l6 33q87 13 165 69h14v-430q0 -32 14 -52t37 -26l-6 -33h-224l-6 33q23 6 37 26z" />
    <glyph glyph-name="icircumflex" unicode="&#xee;" 
d="M139 733l161 -137l-22 -36l-139 62l-138 -62l-23 36zM58 59q14 20 14 52v250q0 32 -14 52t-37 26l6 33q87 13 165 69h14v-430q0 -32 14 -52t37 -26l-6 -33h-224l-6 33q23 6 37 26z" />
    <glyph glyph-name="idieresis" unicode="&#xef;" 
d="M-10.5 617q-19.5 20 -19.5 46q0 28 19.5 48.5t51.5 20.5t52 -20.5t20 -48.5q0 -26 -20 -46t-52 -20t-51.5 20zM185.5 617q-19.5 20 -19.5 46q0 28 19.5 48.5t51.5 20.5t51.5 -20.5t19.5 -48.5q0 -26 -19.5 -46t-51.5 -20t-51.5 20zM58 59q14 20 14 52v250q0 32 -14 52
t-37 26l6 33q87 13 165 69h14v-430q0 -32 14 -52t37 -26l-6 -33h-224l-6 33q23 6 37 26z" />
    <glyph glyph-name="eth" unicode="&#xf0;" horiz-adv-x="619" 
d="M163.5 17q-66.5 36 -102.5 99.5t-36 143.5t35 144t96.5 100.5t139.5 36.5q72 0 127 -39l4 2q-15 87 -52 152l-130 -48l-15 40l128 49q-19 39 -49 77l44 39q35 -28 88 -88l123 45l16 -40l-106 -40q54 -75 88.5 -167.5t34.5 -195.5q0 -167 -73.5 -256.5t-205.5 -89.5
q-88 0 -154.5 36zM415 103.5q28 61.5 28 182.5q0 76 -6 140q-52 54 -122 54q-71 0 -104.5 -57t-33.5 -165q0 -216 141 -216q69 0 97 61.5z" />
    <glyph glyph-name="ntilde" unicode="&#xf1;" horiz-adv-x="643" 
d="M226 652.5q-11 -9.5 -15 -29.5l-45 12q6 56 32 81t62 25q20 0 36.5 -7.5t40.5 -21.5q22 -12 33 -17t23 -5q14 0 25.5 9t15.5 29l43 -11q-6 -56 -32 -81.5t-62 -25.5q-20 0 -37.5 7.5t-39.5 21.5q-18 11 -30.5 17t-24.5 6q-14 0 -25 -9.5zM582 59q16 -20 40 -26l-6 -33
h-224l-7 33q20 5 32 21.5t12 42.5q0 9 -1 14l-20 224q-5 58 -30.5 90.5t-70.5 32.5q-44 0 -73 -33t-29 -82v-232q0 -32 14.5 -52t37.5 -26l-7 -33h-223l-5 33q22 6 35.5 26t13.5 52v246q0 32 -13.5 52.5t-36.5 25.5l6 33q78 13 159 73h13l3 -81h5q23 36 59.5 58.5t86.5 22.5
q174 0 193 -216l17 -214q3 -32 19 -52z" />
    <glyph glyph-name="ograve" unicode="&#xf2;" horiz-adv-x="602" 
d="M164 678q-10 13 -10 32q0 17 12.5 29.5t32.5 12.5q19 0 32.5 -8.5t27.5 -26.5l96 -125l-35 -27l-129 89q-17 11 -27 24zM160.5 18q-63.5 37 -98 102t-34.5 145t34 142.5t95.5 98t142.5 35.5t143.5 -36.5t96.5 -100.5t34 -145q0 -80 -33 -143.5t-94 -99t-141 -35.5
q-82 0 -145.5 37zM415.5 93.5q29.5 43.5 29.5 110.5q0 51 -21 114.5t-60.5 109t-91.5 45.5q-54 0 -84 -43t-30 -112q0 -52 21 -115t61 -108t93 -45t82.5 43.5z" />
    <glyph glyph-name="oacute" unicode="&#xf3;" horiz-adv-x="602" 
d="M327 717q13 18 26.5 26.5t33.5 8.5q19 0 31.5 -12.5t12.5 -29.5q0 -33 -36 -56l-130 -89l-34 28zM160.5 18q-63.5 37 -98 102t-34.5 145t34 142.5t95.5 98t142.5 35.5t143.5 -36.5t96.5 -100.5t34 -145q0 -80 -33 -143.5t-94 -99t-141 -35.5q-82 0 -145.5 37zM415.5 93.5
q29.5 43.5 29.5 110.5q0 51 -21 114.5t-60.5 109t-91.5 45.5q-54 0 -84 -43t-30 -112q0 -52 21 -115t61 -108t93 -45t82.5 43.5z" />
    <glyph glyph-name="ocircumflex" unicode="&#xf4;" horiz-adv-x="602" 
d="M301 733l161 -137l-22 -36l-139 62l-138 -62l-23 36zM160.5 18q-63.5 37 -98 102t-34.5 145t34 142.5t95.5 98t142.5 35.5t143.5 -36.5t96.5 -100.5t34 -145q0 -80 -33 -143.5t-94 -99t-141 -35.5q-82 0 -145.5 37zM415.5 93.5q29.5 43.5 29.5 110.5q0 51 -21 114.5
t-60.5 109t-91.5 45.5q-54 0 -84 -43t-30 -112q0 -52 21 -115t61 -108t93 -45t82.5 43.5z" />
    <glyph glyph-name="otilde" unicode="&#xf5;" horiz-adv-x="602" 
d="M325.5 617.5q-17.5 7.5 -39.5 21.5q-18 12 -30.5 17.5t-25.5 5.5t-24.5 -9.5t-15.5 -29.5l-45 12q6 55 32.5 80.5t61.5 25.5q20 0 36.5 -7t41.5 -21q18 -12 30.5 -17.5t25.5 -5.5q14 0 25 9t16 29l43 -11q-7 -56 -33 -81.5t-61 -25.5q-20 0 -37.5 7.5zM160.5 18
q-63.5 37 -98 102t-34.5 145t34 142.5t95.5 98t142.5 35.5t143.5 -36.5t96.5 -100.5t34 -145q0 -80 -33 -143.5t-94 -99t-141 -35.5q-82 0 -145.5 37zM415.5 93.5q29.5 43.5 29.5 110.5q0 51 -21 114.5t-60.5 109t-91.5 45.5q-54 0 -84 -43t-30 -112q0 -52 21 -115t61 -108
t93 -45t82.5 43.5z" />
    <glyph glyph-name="odieresis" unicode="&#xf6;" horiz-adv-x="602" 
d="M151.5 617q-19.5 20 -19.5 46q0 28 19.5 48.5t51.5 20.5t52 -20.5t20 -48.5q0 -26 -20 -46t-52 -20t-51.5 20zM346.5 617q-19.5 20 -19.5 46q0 28 19.5 48.5t51.5 20.5t52 -20.5t20 -48.5q0 -26 -20 -46t-52 -20t-51.5 20zM160.5 18q-63.5 37 -98 102t-34.5 145t34 142.5
t95.5 98t142.5 35.5t143.5 -36.5t96.5 -100.5t34 -145q0 -80 -33 -143.5t-94 -99t-141 -35.5q-82 0 -145.5 37zM415.5 93.5q29.5 43.5 29.5 110.5q0 51 -21 114.5t-60.5 109t-91.5 45.5q-54 0 -84 -43t-30 -112q0 -52 21 -115t61 -108t93 -45t82.5 43.5z" />
    <glyph glyph-name="divide" unicode="&#xf7;" horiz-adv-x="593" 
d="M230 468.5q-23 24.5 -23 59.5t23 59.5t66 24.5q42 0 66 -25t24 -59t-24 -59t-66 -25q-43 0 -66 24.5zM585 380v-60h-576v60h576zM230 112q-23 24 -23 59t23 59.5t66 24.5q42 0 66 -24.5t24 -59.5q0 -34 -24 -58.5t-66 -24.5q-43 0 -66 24z" />
    <glyph glyph-name="oslash" unicode="&#xf8;" horiz-adv-x="603" 
d="M547.5 393q28.5 -60 28.5 -134q0 -80 -33.5 -143.5t-94.5 -99t-142 -35.5q-58 0 -109 20l-29 -54l-51 29l28 52q-55 38 -86 100t-31 137q0 79 34 142t96 98.5t143 35.5q61 0 114 -22l29 52l52 -27l-29 -54q52 -37 80.5 -97zM171 230q13 -49 36 -90l158 287q-41 46 -92 46
q-55 0 -85 -43.5t-30 -111.5q0 -39 13 -88zM416.5 93q29.5 44 29.5 111q0 36 -11.5 82.5t-32.5 86.5l-156 -284q40 -40 88 -40q53 0 82.5 44z" />
    <glyph glyph-name="ugrave" unicode="&#xf9;" horiz-adv-x="625" 
d="M166 710q0 17 12.5 29.5t32.5 12.5q19 0 32.5 -8.5t26.5 -26.5l96 -125l-34 -27l-130 89q-36 23 -36 56zM567.5 60q14.5 -20 36.5 -26l-6 -35q-87 -4 -140 -18h-12l-17 93h-7q-60 -93 -172 -93q-84 0 -135 54t-51 161v164q0 32 -14 52t-36 26l6 34q89 14 166 69h13v-354
q0 -59 29.5 -91t78.5 -32q46 0 79 33t33 81v182q0 32 -14 52.5t-36 25.5l6 34q93 16 165 69h13v-429q0 -32 14.5 -52z" />
    <glyph glyph-name="uacute" unicode="&#xfa;" horiz-adv-x="625" 
d="M280 593l95 124q14 18 28 26.5t33 8.5t31.5 -12.5t12.5 -29.5q0 -19 -10 -32t-27 -24l-129 -89zM567.5 60q14.5 -20 36.5 -26l-6 -35q-87 -4 -140 -18h-12l-17 93h-7q-60 -93 -172 -93q-84 0 -135 54t-51 161v164q0 32 -14 52t-36 26l6 34q89 14 166 69h13v-354
q0 -59 29.5 -91t78.5 -32q46 0 79 33t33 81v182q0 32 -14 52.5t-36 25.5l6 34q93 16 165 69h13v-429q0 -32 14.5 -52z" />
    <glyph glyph-name="ucircumflex" unicode="&#xfb;" horiz-adv-x="625" 
d="M151 596l161 137l161 -137l-22 -36l-139 62l-138 -62zM567.5 60q14.5 -20 36.5 -26l-6 -35q-87 -4 -140 -18h-12l-17 93h-7q-60 -93 -172 -93q-84 0 -135 54t-51 161v164q0 32 -14 52t-36 26l6 34q89 14 166 69h13v-354q0 -59 29.5 -91t78.5 -32q46 0 79 33t33 81v182
q0 32 -14 52.5t-36 25.5l6 34q93 16 165 69h13v-429q0 -32 14.5 -52z" />
    <glyph glyph-name="udieresis" unicode="&#xfc;" horiz-adv-x="625" 
d="M162.5 617q-19.5 20 -19.5 46q0 28 19.5 48.5t51.5 20.5t52 -20.5t20 -48.5q0 -26 -20 -46t-52 -20t-51.5 20zM358.5 617q-19.5 20 -19.5 46q0 28 19.5 48.5t51.5 20.5t51.5 -20.5t19.5 -48.5q0 -26 -19.5 -46t-51.5 -20t-51.5 20zM567.5 60q14.5 -20 36.5 -26l-6 -35
q-87 -4 -140 -18h-12l-17 93h-7q-60 -93 -172 -93q-84 0 -135 54t-51 161v164q0 32 -14 52t-36 26l6 34q89 14 166 69h13v-354q0 -59 29.5 -91t78.5 -32q46 0 79 33t33 81v182q0 32 -14 52.5t-36 25.5l6 34q93 16 165 69h13v-429q0 -32 14.5 -52z" />
    <glyph glyph-name="yacute" unicode="&#xfd;" horiz-adv-x="528" 
d="M235 593l96 124q15 18 28 26.5t32 8.5t32 -12.5t13 -29.5q0 -19 -10 -32t-27 -24l-129 -89zM500.5 515q22.5 -26 22.5 -64q0 -74 -57 -210q-35 -97 -72.5 -172t-91.5 -147q-52 -76 -96 -111t-97 -35q-38 0 -64.5 22t-26.5 56q0 32 20.5 51.5t51.5 19.5q21 0 34 -8.5
t25 -22.5q14 -16 24 -16q17 0 36 19t45 62l27 41h-30l-156 356q-15 35 -42.5 54.5t-57.5 24.5l6 34q40 6 82.5 25t65.5 47h14l182 -411h7q30 62 51 131q20 49 26.5 72t5.5 41q-1 12 -7.5 19t-22.5 19q-20 14 -30.5 27t-10.5 36q0 30 21.5 48t54.5 18q38 0 60.5 -26z" />
    <glyph glyph-name="thorn" unicode="&#xfe;" horiz-adv-x="624" 
d="M482.5 504.5q56.5 -36.5 88.5 -100.5t32 -145q0 -80 -30 -143.5t-84.5 -99t-125.5 -35.5q-94 0 -158 74h-5v-147q0 -32 14.5 -52.5t36.5 -26.5l-6 -34h-224l-6 34q23 6 37 26.5t14 52.5v680q0 32 -14 52.5t-37 26.5l6 33q43 7 91.5 25t91.5 47l11 -5q-15 -60 -15 -171
v-122h4q31 35 67.5 51t84.5 16q70 0 126.5 -36.5zM443.5 94q31.5 44 31.5 110q0 56 -18.5 119t-55 106.5t-86.5 43.5q-51 0 -82 -43t-31 -112q0 -58 18 -120.5t54.5 -105t87.5 -42.5q50 0 81.5 44z" />
    <glyph glyph-name="ydieresis" unicode="&#xff;" horiz-adv-x="528" 
d="M114.5 617q-19.5 20 -19.5 46q0 28 19.5 48.5t51.5 20.5t51.5 -20.5t19.5 -48.5q0 -26 -19.5 -46t-51.5 -20t-51.5 20zM309.5 617q-19.5 20 -19.5 46q0 28 19.5 48.5t51.5 20.5t52 -20.5t20 -48.5q0 -26 -20 -46t-52 -20t-51.5 20zM500.5 515q22.5 -26 22.5 -64
q0 -74 -57 -210q-35 -97 -72.5 -172t-91.5 -147q-52 -76 -96 -111t-97 -35q-38 0 -64.5 22t-26.5 56q0 32 20.5 51.5t51.5 19.5q21 0 34 -8.5t25 -22.5q14 -16 24 -16q17 0 36 19t45 62l27 41h-30l-156 356q-15 35 -42.5 54.5t-57.5 24.5l6 34q40 6 82.5 25t65.5 47h14
l182 -411h7q30 62 51 131q20 49 26.5 72t5.5 41q-1 12 -7.5 19t-22.5 19q-20 14 -30.5 27t-10.5 36q0 30 21.5 48t54.5 18q38 0 60.5 -26z" />
    <glyph glyph-name="Amacron" unicode="&#x100;" horiz-adv-x="683" 
d="M194 797v69h294v-69h-294zM646.5 59.5q21.5 -19.5 45.5 -25.5l-6 -34h-253l-6 34q27 8 27 40q0 18 -8 37l-25 65h-259l-25 -65q-8 -19 -8 -37q0 -31 28 -40l-6 -34h-154l-6 34q24 6 46 25.5t34 51.5l186 477q-20 28 -57 53l4 34q43 3 87 14t73 31h8l240 -609
q13 -32 34.5 -51.5zM293 505h-4l-100 -258h204z" />
    <glyph glyph-name="amacron" unicode="&#x101;" horiz-adv-x="565" 
d="M137 619v69h293v-69h-293zM540 -9.5q-29 -9.5 -56 -9.5q-41 0 -73.5 20t-44.5 67h-5q-25 -45 -70.5 -66t-94.5 -21q-74 0 -123 39t-49 105q0 63 42 103t106 61.5t157 38.5l-10 71q-4 36 -24.5 57t-49.5 21t-48 -17t-16 -43q1 -5 1 -14q0 -26 -18.5 -42t-44.5 -16
q-30 0 -47 18t-17 50q1 32 23.5 61t67.5 48t109 19q83 0 141.5 -47t69.5 -140l27 -232q5 -38 18.5 -59t34.5 -21q12 0 30 8l12 -30q-19 -20 -48 -29.5zM303 75.5q23 15.5 36 41t12 53.5l-16 114q-79 -16 -125.5 -48.5t-46.5 -86.5q0 -41 25.5 -65t65.5 -24q26 0 49 15.5z
" />
    <glyph glyph-name="Abreve" unicode="&#x102;" horiz-adv-x="683" 
d="M245 801.5q-39 28.5 -54 72.5l45 24q10 -24 39.5 -39.5t65.5 -15.5t66 15.5t40 38.5l44 -23q-16 -44 -54 -72.5t-96 -28.5q-57 0 -96 28.5zM646.5 59.5q21.5 -19.5 45.5 -25.5l-6 -34h-253l-6 34q27 8 27 40q0 18 -8 37l-25 65h-259l-25 -65q-8 -19 -8 -37q0 -31 28 -40
l-6 -34h-154l-6 34q24 6 46 25.5t34 51.5l186 477q-20 28 -57 53l4 34q43 3 87 14t73 31h8l240 -609q13 -32 34.5 -51.5zM293 505h-4l-100 -258h204z" />
    <glyph glyph-name="abreve" unicode="&#x103;" horiz-adv-x="565" 
d="M187.5 623.5q-38.5 28.5 -53.5 72.5l44 24q10 -23 39.5 -39t65.5 -16t66.5 15.5t40.5 38.5l44 -23q-16 -44 -54.5 -72.5t-96.5 -28.5q-57 0 -95.5 28.5zM540 -9.5q-29 -9.5 -56 -9.5q-41 0 -73.5 20t-44.5 67h-5q-25 -45 -70.5 -66t-94.5 -21q-74 0 -123 39t-49 105
q0 63 42 103t106 61.5t157 38.5l-10 71q-4 36 -24.5 57t-49.5 21t-48 -17t-16 -43q1 -5 1 -14q0 -26 -18.5 -42t-44.5 -16q-30 0 -47 18t-17 50q1 32 23.5 61t67.5 48t109 19q83 0 141.5 -47t69.5 -140l27 -232q5 -38 18.5 -59t34.5 -21q12 0 30 8l12 -30q-19 -20 -48 -29.5
zM303 75.5q23 15.5 36 41t12 53.5l-16 114q-79 -16 -125.5 -48.5t-46.5 -86.5q0 -41 25.5 -65t65.5 -24q26 0 49 15.5z" />
    <glyph glyph-name="Aogonek" unicode="&#x104;" horiz-adv-x="683" 
d="M661 -197.5q-31 -19.5 -77 -19.5q-54 0 -87 29t-33 74q0 33 15.5 62t44.5 52h-91l-6 34q27 8 27 40q0 18 -8 37l-25 65h-259l-25 -65q-8 -19 -8 -37q0 -31 28 -40l-6 -34h-154l-6 34q24 6 46 25.5t34 51.5l186 477q-20 28 -57 53l4 34q43 3 87 14t73 31h8l240 -609
q13 -32 34.5 -51.5t45.5 -25.5l-6 -34h-68q-29 -19 -45.5 -45t-16.5 -55q0 -24 16 -40.5t38 -16.5q42 0 66 42l40 -22q-24 -41 -55 -60.5zM293 505h-4l-100 -258h204z" />
    <glyph glyph-name="aogonek" unicode="&#x105;" horiz-adv-x="587" 
d="M556 -197.5q-31 -19.5 -77 -19.5q-54 0 -87.5 29t-33.5 74q0 65 59 111q-39 22 -51 71h-5q-25 -45 -70.5 -66t-94.5 -21q-74 0 -123 39t-49 105q0 63 42 103t106 61.5t157 38.5l-10 71q-4 36 -24.5 57t-49.5 21t-48 -17t-16 -43q1 -5 1 -14q0 -26 -18.5 -42t-44.5 -16
q-30 0 -47 18t-17 50q1 32 23.5 61t67.5 48t109 19q83 0 141.5 -47t69.5 -140l27 -232q5 -38 18.5 -59t34.5 -21q12 0 30 8l12 -30q-18 -19 -44 -28t-53 -11q-40 -37 -40 -82q0 -24 16 -40t38 -16q42 0 64 42l41 -22q-23 -41 -54 -60.5zM303 75.5q23 15.5 36 41t12 53.5
l-16 114q-79 -16 -125.5 -48.5t-46.5 -86.5q0 -41 25.5 -65t65.5 -24q26 0 49 15.5z" />
    <glyph glyph-name="Cacute" unicode="&#x106;" horiz-adv-x="690" 
d="M358 895q13 18 26.5 26.5t33.5 8.5q19 0 31.5 -12.5t12.5 -29.5q0 -33 -36 -56l-130 -89l-34 28zM195 29q-77 48 -118.5 131.5t-41.5 188.5q0 103 44.5 187.5t122.5 133.5t176 49q37 0 90 -11q40 -8 55 -8q27 0 49.5 6.5t31.5 12.5h12l43 -227l-41 -8q-27 75 -83.5 122.5
t-140.5 47.5q-50 0 -97 -30t-77 -87t-30 -132q0 -99 34.5 -171.5t90.5 -110.5t120 -38q78 0 123 49.5t68 117.5l41 -11q-11 -71 -46.5 -129.5t-97.5 -94.5t-147 -36q-104 0 -181 48z" />
    <glyph glyph-name="cacute" unicode="&#x107;" horiz-adv-x="552" 
d="M288 717q13 18 26.5 26.5t33.5 8.5q19 0 31.5 -12.5t12.5 -29.5q0 -33 -36 -56l-130 -89l-34 28zM166 19q-65 38 -101.5 103t-36.5 141q0 84 37 147t101 97t141 34q64 0 116.5 -22.5t82.5 -59t30 -76.5q0 -26 -20 -47t-47 -21q-37 0 -53 19.5t-30 58.5q-11 29 -21 46.5
t-29.5 29.5t-52.5 12q-32 0 -60 -20.5t-45 -56.5t-17 -81q0 -114 52 -175.5t146 -61.5q48 0 89.5 27.5t61.5 62.5l29 -10q-14 -79 -70 -132t-157 -53q-81 0 -146 38z" />
    <glyph glyph-name="Ccircumflex" unicode="&#x108;" horiz-adv-x="690" 
d="M345 911l161 -137l-22 -36l-139 62l-138 -62l-23 36zM195 29q-77 48 -118.5 131.5t-41.5 188.5q0 103 44.5 187.5t122.5 133.5t176 49q37 0 90 -11q40 -8 55 -8q27 0 49.5 6.5t31.5 12.5h12l43 -227l-41 -8q-27 75 -83.5 122.5t-140.5 47.5q-50 0 -97 -30t-77 -87
t-30 -132q0 -99 34.5 -171.5t90.5 -110.5t120 -38q78 0 123 49.5t68 117.5l41 -11q-11 -71 -46.5 -129.5t-97.5 -94.5t-147 -36q-104 0 -181 48z" />
    <glyph glyph-name="ccircumflex" unicode="&#x109;" horiz-adv-x="552" 
d="M276 733l161 -137l-23 -36l-138 62l-138 -62l-24 36zM166 19q-65 38 -101.5 103t-36.5 141q0 84 37 147t101 97t141 34q64 0 116.5 -22.5t82.5 -59t30 -76.5q0 -26 -20 -47t-47 -21q-37 0 -53 19.5t-30 58.5q-11 29 -21 46.5t-29.5 29.5t-52.5 12q-32 0 -60 -20.5
t-45 -56.5t-17 -81q0 -114 52 -175.5t146 -61.5q48 0 89.5 27.5t61.5 62.5l29 -10q-14 -79 -70 -132t-157 -53q-81 0 -146 38z" />
    <glyph glyph-name="Cdotaccent" unicode="&#x10a;" horiz-adv-x="690" 
d="M293.5 808q-19.5 20 -19.5 46q0 28 19 48.5t51 20.5q33 0 52.5 -20.5t19.5 -48.5q0 -26 -19.5 -46t-52.5 -20q-31 0 -50.5 20zM195 29q-77 48 -118.5 131.5t-41.5 188.5q0 103 44.5 187.5t122.5 133.5t176 49q37 0 90 -11q40 -8 55 -8q27 0 49.5 6.5t31.5 12.5h12
l43 -227l-41 -8q-27 75 -83.5 122.5t-140.5 47.5q-50 0 -97 -30t-77 -87t-30 -132q0 -99 34.5 -171.5t90.5 -110.5t120 -38q78 0 123 49.5t68 117.5l41 -11q-11 -71 -46.5 -129.5t-97.5 -94.5t-147 -36q-104 0 -181 48z" />
    <glyph glyph-name="cdotaccent" unicode="&#x10b;" horiz-adv-x="552" 
d="M224.5 630q-19.5 20 -19.5 46q0 28 19.5 48.5t51.5 20.5q33 0 52.5 -20.5t19.5 -48.5q0 -26 -19.5 -46t-52.5 -20q-32 0 -51.5 20zM166 19q-65 38 -101.5 103t-36.5 141q0 84 37 147t101 97t141 34q64 0 116.5 -22.5t82.5 -59t30 -76.5q0 -26 -20 -47t-47 -21
q-37 0 -53 19.5t-30 58.5q-11 29 -21 46.5t-29.5 29.5t-52.5 12q-32 0 -60 -20.5t-45 -56.5t-17 -81q0 -114 52 -175.5t146 -61.5q48 0 89.5 27.5t61.5 62.5l29 -10q-14 -79 -70 -132t-157 -53q-81 0 -146 38z" />
    <glyph glyph-name="Ccaron" unicode="&#x10c;" horiz-adv-x="690" 
d="M206 915l139 -62l138 62l23 -36l-161 -137l-161 137zM195 29q-77 48 -118.5 131.5t-41.5 188.5q0 103 44.5 187.5t122.5 133.5t176 49q37 0 90 -11q40 -8 55 -8q27 0 49.5 6.5t31.5 12.5h12l43 -227l-41 -8q-27 75 -83.5 122.5t-140.5 47.5q-50 0 -97 -30t-77 -87
t-30 -132q0 -99 34.5 -171.5t90.5 -110.5t120 -38q78 0 123 49.5t68 117.5l41 -11q-11 -71 -46.5 -129.5t-97.5 -94.5t-147 -36q-104 0 -181 48z" />
    <glyph glyph-name="ccaron" unicode="&#x10d;" horiz-adv-x="552" 
d="M137 737l139 -62l138 62l23 -36l-161 -137l-162 137zM166 19q-65 38 -101.5 103t-36.5 141q0 84 37 147t101 97t141 34q64 0 116.5 -22.5t82.5 -59t30 -76.5q0 -26 -20 -47t-47 -21q-37 0 -53 19.5t-30 58.5q-11 29 -21 46.5t-29.5 29.5t-52.5 12q-32 0 -60 -20.5
t-45 -56.5t-17 -81q0 -114 52 -175.5t146 -61.5q48 0 89.5 27.5t61.5 62.5l29 -10q-14 -79 -70 -132t-157 -53q-81 0 -146 38z" />
    <glyph glyph-name="Dcaron" unicode="&#x10e;" horiz-adv-x="731" 
d="M165 879l23 36l139 -62l137 62l24 -36l-161 -137zM510 652.5q86 -47.5 136 -131t50 -187.5q0 -111 -44.5 -186t-122.5 -111.5t-179 -36.5h-321l-6 34q23 6 37 26t14 52v476q0 32 -14 52t-37 26l6 34h290q105 0 191 -47.5zM453 99q45 34 66.5 88.5t21.5 117.5
q0 87 -29 162.5t-86 121.5t-137 46q-30 0 -59 -3v-555q53 -12 111 -12q67 0 112 34z" />
    <glyph glyph-name="dcaron" unicode="&#x10f;" horiz-adv-x="822" 
d="M571 60q14 -20 37 -26l-6 -34q-86 -5 -139 -19h-13l-14 75h-6q-34 -40 -72.5 -57.5t-90.5 -17.5q-70 0 -126.5 36.5t-89 101t-32.5 144.5t30 143.5t85 99t127 35.5q94 0 156 -74h6v120q0 32 -14 52.5t-36 26.5l6 33q44 8 91 25.5t89 46.5l12 -4q-14 -56 -14 -172v-483
q0 -32 14 -52zM773.5 687.5q27.5 -31.5 27.5 -83.5q0 -71 -42 -140t-109 -108l-35 45q40 27 66.5 66t37.5 87l-3 3q-14 -7 -26 -7q-35 0 -60.5 24t-25.5 61t28.5 60.5t69.5 23.5q44 0 71.5 -31.5zM390.5 92.5q31.5 43.5 31.5 111.5q0 58 -18.5 120.5t-55 105.5t-88.5 43
q-50 0 -81 -44.5t-31 -110.5q0 -56 18.5 -119t55 -106.5t86.5 -43.5q51 0 82.5 43.5z" />
    <glyph glyph-name="Dcroat" unicode="&#x110;" horiz-adv-x="757" 
d="M538 652.5q86 -47.5 136 -131t50 -187.5q0 -111 -44.5 -186t-122.5 -111.5t-179 -36.5h-321l-6 33q23 6 37 26.5t14 52.5v201h-114v73h114v202q0 32 -14 52t-37 26l6 34h290q105 0 191 -47.5zM481 99q45 34 66.5 88.5t21.5 117.5q0 87 -29 162.5t-86 121.5t-138 46
q-30 0 -58 -3v-246h113l1 -73h-114v-236q53 -12 111 -12q67 0 112 34z" />
    <glyph glyph-name="dcroat" unicode="&#x111;" horiz-adv-x="672" 
d="M580 60.5q14 -20.5 36 -26.5l-6 -34q-85 -5 -138 -19h-13l-14 76h-6q-35 -41 -73.5 -58.5t-90.5 -17.5q-70 0 -126.5 36.5t-88.5 101t-32 144.5t30 143.5t85 99t126 35.5q95 0 156 -73h7v101h-145v51h140q-11 37 -46 47l6 33q42 7 90.5 25t91.5 47l12 -5
q-14 -54 -14 -147h103l1 -51h-104l-1 -456q0 -32 14 -52.5zM399 93q31 43 31 112q0 58 -18.5 120.5t-55 105t-87.5 42.5q-50 0 -81.5 -44.5t-31.5 -109.5q0 -56 18.5 -119t55.5 -106.5t87 -43.5q51 0 82 43z" />
    <glyph glyph-name="Emacron" unicode="&#x112;" horiz-adv-x="639" 
d="M173 797v69h293v-69h-293zM578 -18h-12q-15 8 -59.5 13t-81.5 5h-396l-6 33q23 6 37 26.5t14 52.5v476q0 32 -14 52t-37 26l6 34h528l41 -159l-35 -13q-24 45 -82 76t-147 31q-54 0 -104 -10v-232h186q32 0 53.5 14.5t26.5 37.5l34 -6v-158l-34 -6q-6 24 -27 38t-53 14
h-186v-251q75 -11 133 -11q82 0 143 36.5t93 88.5l36 -17z" />
    <glyph glyph-name="emacron" unicode="&#x113;" horiz-adv-x="592" 
d="M148 619v69h293v-69h-293zM457.5 114q40.5 28 59.5 64l29 -11q-6 -48 -36.5 -90.5t-82.5 -69t-118 -26.5q-80 0 -144.5 37.5t-100.5 102.5t-36 142q0 83 36.5 146t99.5 97.5t140 34.5q82 0 139 -38t80 -98q14 -34 34 -38l7 -44l-385 -108q21 -64 69 -96.5t119 -32.5
q50 0 90.5 28zM225.5 453.5q-28.5 -21.5 -44.5 -57.5t-16 -79q0 -16 2 -42l240 66q-5 53 -36 93.5t-82 40.5q-35 0 -63.5 -21.5z" />
    <glyph glyph-name="Ebreve" unicode="&#x114;" horiz-adv-x="639" 
d="M223.5 801.5q-38.5 28.5 -54.5 72.5l45 24q10 -23 39.5 -39t65.5 -16t66 15.5t40 38.5l45 -23q-16 -44 -54.5 -72.5t-96.5 -28.5q-57 0 -95.5 28.5zM578 -18h-12q-15 8 -59.5 13t-81.5 5h-396l-6 33q23 6 37 26.5t14 52.5v476q0 32 -14 52t-37 26l6 34h528l41 -159
l-35 -13q-24 45 -82 76t-147 31q-54 0 -104 -10v-232h186q32 0 53.5 14.5t26.5 37.5l34 -6v-158l-34 -6q-6 24 -27 38t-53 14h-186v-251q75 -11 133 -11q82 0 143 36.5t93 88.5l36 -17z" />
    <glyph glyph-name="ebreve" unicode="&#x115;" horiz-adv-x="592" 
d="M198.5 623.5q-38.5 28.5 -54.5 72.5l45 24q10 -23 39.5 -39t65.5 -16t66 15.5t40 38.5l45 -23q-16 -44 -54.5 -72.5t-96.5 -28.5q-57 0 -95.5 28.5zM457.5 114q40.5 28 59.5 64l29 -11q-6 -48 -36.5 -90.5t-82.5 -69t-118 -26.5q-80 0 -144.5 37.5t-100.5 102.5t-36 142
q0 83 36.5 146t99.5 97.5t140 34.5q82 0 139 -38t80 -98q14 -34 34 -38l7 -44l-385 -108q21 -64 69 -96.5t119 -32.5q50 0 90.5 28zM225.5 453.5q-28.5 -21.5 -44.5 -57.5t-16 -79q0 -16 2 -42l240 66q-5 53 -36 93.5t-82 40.5q-35 0 -63.5 -21.5z" />
    <glyph glyph-name="Edotaccent" unicode="&#x116;" horiz-adv-x="639" 
d="M267.5 808q-19.5 20 -19.5 46q0 28 19.5 48.5t51.5 20.5t51.5 -20.5t19.5 -48.5q0 -26 -19.5 -46t-51.5 -20t-51.5 20zM578 -18h-12q-15 8 -59.5 13t-81.5 5h-396l-6 33q23 6 37 26.5t14 52.5v476q0 32 -14 52t-37 26l6 34h528l41 -159l-35 -13q-24 45 -82 76t-147 31
q-54 0 -104 -10v-232h186q32 0 53.5 14.5t26.5 37.5l34 -6v-158l-34 -6q-6 24 -27 38t-53 14h-186v-251q75 -11 133 -11q82 0 143 36.5t93 88.5l36 -17z" />
    <glyph glyph-name="edotaccent" unicode="&#x117;" horiz-adv-x="592" 
d="M243.5 630q-19.5 20 -19.5 46q0 28 19 48.5t51 20.5q33 0 52.5 -20.5t19.5 -48.5q0 -26 -19.5 -46t-52.5 -20q-31 0 -50.5 20zM457.5 114q40.5 28 59.5 64l29 -11q-6 -48 -36.5 -90.5t-82.5 -69t-118 -26.5q-80 0 -144.5 37.5t-100.5 102.5t-36 142q0 83 36.5 146
t99.5 97.5t140 34.5q82 0 139 -38t80 -98q14 -34 34 -38l7 -44l-385 -108q21 -64 69 -96.5t119 -32.5q50 0 90.5 28zM225.5 453.5q-28.5 -21.5 -44.5 -57.5t-16 -79q0 -16 2 -42l240 66q-5 53 -36 93.5t-82 40.5q-35 0 -63.5 -21.5z" />
    <glyph glyph-name="Eogonek" unicode="&#x118;" horiz-adv-x="639" 
d="M623.5 -197.5q-31.5 -19.5 -77.5 -19.5q-54 0 -87 29t-33 74q0 65 62 114h-459l-6 33q23 6 37 26.5t14 52.5v476q0 32 -14 52t-37 26l6 34h528l41 -159l-35 -13q-24 45 -82 76t-147 31q-54 0 -104 -10v-232h186q32 0 53.5 14.5t26.5 37.5l34 -6v-158l-34 -6q-6 24 -27 38
t-53 14h-186v-253q72 -9 133 -9q82 0 143 36.5t93 88.5l36 -17l-51 -173q-31 -19 -48 -45.5t-17 -55.5q0 -24 16 -40t38 -16q40 0 64 42l41 -22q-23 -41 -54.5 -60.5z" />
    <glyph glyph-name="eogonek" unicode="&#x119;" horiz-adv-x="592" 
d="M457.5 114q40.5 28 59.5 64l29 -11q-5 -42 -30 -81.5t-68 -66.5t-98 -35q-20 -18 -31.5 -40t-11.5 -45q0 -24 16 -40t39 -16q40 0 64 42l41 -22q-23 -41 -54.5 -60.5t-77.5 -19.5q-54 0 -87 29t-33 74q0 57 44 99q-68 11 -120.5 50.5t-81.5 99t-29 128.5q0 83 36.5 146
t99.5 97.5t140 34.5q82 0 139 -38t80 -98q14 -34 34 -38l7 -44l-385 -108q21 -64 69 -96.5t119 -32.5q50 0 90.5 28zM225.5 453.5q-28.5 -21.5 -44.5 -57.5t-16 -79q0 -16 2 -42l240 66q-5 53 -36 93.5t-82 40.5q-35 0 -63.5 -21.5z" />
    <glyph glyph-name="Ecaron" unicode="&#x11a;" horiz-adv-x="639" 
d="M158 879l23 36l139 -62l138 62l23 -36l-161 -137zM578 -18h-12q-15 8 -59.5 13t-81.5 5h-396l-6 33q23 6 37 26.5t14 52.5v476q0 32 -14 52t-37 26l6 34h528l41 -159l-35 -13q-24 45 -82 76t-147 31q-54 0 -104 -10v-232h186q32 0 53.5 14.5t26.5 37.5l34 -6v-158l-34 -6
q-6 24 -27 38t-53 14h-186v-251q75 -11 133 -11q82 0 143 36.5t93 88.5l36 -17z" />
    <glyph glyph-name="ecaron" unicode="&#x11b;" horiz-adv-x="592" 
d="M133 701l23 36l139 -62l138 62l23 -36l-161 -137zM457.5 114q40.5 28 59.5 64l29 -11q-6 -48 -36.5 -90.5t-82.5 -69t-118 -26.5q-80 0 -144.5 37.5t-100.5 102.5t-36 142q0 83 36.5 146t99.5 97.5t140 34.5q82 0 139 -38t80 -98q14 -34 34 -38l7 -44l-385 -108
q21 -64 69 -96.5t119 -32.5q50 0 90.5 28zM225.5 453.5q-28.5 -21.5 -44.5 -57.5t-16 -79q0 -16 2 -42l240 66q-5 53 -36 93.5t-82 40.5q-35 0 -63.5 -21.5z" />
    <glyph glyph-name="Gcircumflex" unicode="&#x11c;" horiz-adv-x="728" 
d="M202 774l162 137l161 -137l-23 -36l-138 62l-139 -62zM681 302q-14 -20 -14 -52v-250h-41l-40 63h-4q-37 -39 -89 -60.5t-117 -21.5q-104 0 -181 48t-118.5 131.5t-41.5 188.5q0 103 44.5 187.5t122.5 133.5t176 49q37 0 90 -11q40 -8 55 -8q27 0 49.5 6.5t31.5 12.5h12
l43 -227l-41 -8q-27 75 -83 122.5t-140 47.5q-50 0 -97.5 -32.5t-77 -91t-29.5 -134.5q0 -101 32 -173.5t87.5 -110.5t126.5 -38q42 0 76 18v158q0 34 -16 52t-46 26l6 33h255l6 -33q-23 -6 -37 -26z" />
    <glyph glyph-name="gcircumflex" unicode="&#x11d;" horiz-adv-x="581" 
d="M419 509q47 -27 73.5 -70.5t26.5 -101.5q0 -60 -29 -105.5t-82 -70t-123 -24.5q-66 0 -120 23q-19 -4 -29 -13.5t-10 -20.5q0 -19 19.5 -29t64.5 -14.5t127 -4.5q120 0 170.5 -30t50.5 -95q0 -55 -37 -95t-100.5 -61t-143.5 -21q-110 0 -179.5 27t-69.5 93q0 28 15 50.5
t40 35.5v5q-54 29 -54 94q0 40 23 67.5t59 37.5v6q-32 27 -49.5 65t-17.5 85q0 59 29.5 104.5t83.5 70t124 24.5q48 0 88 -12q14 24 33 43l-112 50l-138 -62l-23 36l161 137l155 -132q24 10 53 10q32 0 54 -15.5t22 -43.5q0 -25 -13 -41.5t-40 -16.5q-13 0 -22 4.5t-19 12.5
q-10 7 -15.5 10.5t-14.5 3.5q-17 0 -31 -16zM363 225.5q25 28.5 25 76.5q0 42 -14.5 83.5t-42.5 68t-65 26.5q-40 0 -66 -28.5t-26 -75.5q0 -39 15 -80.5t43.5 -70t67.5 -28.5q38 0 63 28.5zM134.5 -60q-10.5 -15 -10.5 -32q0 -34 39 -53.5t116 -19.5q50 0 86.5 12t55.5 30
t19 35q0 19 -11 28t-39.5 12t-88.5 3q-77 0 -136 8q-20 -8 -30.5 -23z" />
    <glyph glyph-name="Gbreve" unicode="&#x11e;" horiz-adv-x="728" 
d="M267.5 801.5q-38.5 28.5 -54.5 72.5l45 24q10 -23 39.5 -39t65.5 -16t66 15.5t40 38.5l45 -23q-16 -44 -54.5 -72.5t-96.5 -28.5q-57 0 -95.5 28.5zM681 302q-14 -20 -14 -52v-250h-41l-40 63h-4q-37 -39 -89 -60.5t-117 -21.5q-104 0 -181 48t-118.5 131.5t-41.5 188.5
q0 103 44.5 187.5t122.5 133.5t176 49q37 0 90 -11q40 -8 55 -8q27 0 49.5 6.5t31.5 12.5h12l43 -227l-41 -8q-27 75 -83 122.5t-140 47.5q-50 0 -97.5 -32.5t-77 -91t-29.5 -134.5q0 -101 32 -173.5t87.5 -110.5t126.5 -38q42 0 76 18v158q0 34 -16 52t-46 26l6 33h255
l6 -33q-23 -6 -37 -26z" />
    <glyph glyph-name="gbreve" unicode="&#x11f;" horiz-adv-x="581" 
d="M194 623.5q-39 28.5 -54 72.5l45 24q10 -24 39.5 -39.5t65.5 -15.5t66 15.5t40 38.5l44 -23q-16 -44 -54 -72.5t-96 -28.5q-57 0 -96 28.5zM419 509q47 -27 73.5 -70.5t26.5 -101.5q0 -60 -29 -105.5t-82 -70t-123 -24.5q-66 0 -120 23q-19 -4 -29 -13.5t-10 -20.5
q0 -19 19.5 -29t64.5 -14.5t127 -4.5q120 0 170.5 -30t50.5 -95q0 -55 -37 -95t-100.5 -61t-143.5 -21q-110 0 -179.5 27t-69.5 93q0 28 15 50.5t40 35.5v5q-54 29 -54 94q0 40 23 67.5t59 37.5v6q-32 27 -49.5 65t-17.5 85q0 59 29.5 104.5t83.5 70t124 24.5q48 0 88 -12
q48 82 129 82q32 0 54 -15.5t22 -43.5q0 -25 -13 -41.5t-40 -16.5q-13 0 -22 4.5t-19 12.5q-10 7 -15.5 10.5t-14.5 3.5q-17 0 -31 -16zM363 225.5q25 28.5 25 76.5q0 42 -14.5 83.5t-42.5 68t-65 26.5q-40 0 -66 -28.5t-26 -75.5q0 -39 15 -80.5t43.5 -70t67.5 -28.5
q38 0 63 28.5zM134.5 -60q-10.5 -15 -10.5 -32q0 -34 39 -53.5t116 -19.5q50 0 86.5 12t55.5 30t19 35q0 19 -11 28t-39.5 12t-88.5 3q-77 0 -136 8q-20 -8 -30.5 -23z" />
    <glyph glyph-name="Gdotaccent" unicode="&#x120;" horiz-adv-x="728" 
d="M312.5 808q-19.5 20 -19.5 46q0 28 19 48.5t51 20.5q33 0 52.5 -20.5t19.5 -48.5q0 -26 -19.5 -46t-52.5 -20q-31 0 -50.5 20zM681 302q-14 -20 -14 -52v-250h-41l-40 63h-4q-37 -39 -89 -60.5t-117 -21.5q-104 0 -181 48t-118.5 131.5t-41.5 188.5q0 103 44.5 187.5
t122.5 133.5t176 49q37 0 90 -11q40 -8 55 -8q27 0 49.5 6.5t31.5 12.5h12l43 -227l-41 -8q-27 75 -83 122.5t-140 47.5q-50 0 -97.5 -32.5t-77 -91t-29.5 -134.5q0 -101 32 -173.5t87.5 -110.5t126.5 -38q42 0 76 18v158q0 34 -16 52t-46 26l6 33h255l6 -33q-23 -6 -37 -26
z" />
    <glyph glyph-name="gdotaccent" unicode="&#x121;" horiz-adv-x="581" 
d="M238.5 630q-19.5 20 -19.5 46q0 28 19.5 48.5t51.5 20.5t51.5 -20.5t19.5 -48.5q0 -26 -19.5 -46t-51.5 -20t-51.5 20zM419 509q47 -27 73.5 -70.5t26.5 -101.5q0 -60 -29 -105.5t-82 -70t-123 -24.5q-66 0 -120 23q-19 -4 -29 -13.5t-10 -20.5q0 -19 19.5 -29
t64.5 -14.5t127 -4.5q120 0 170.5 -30t50.5 -95q0 -55 -37 -95t-100.5 -61t-143.5 -21q-110 0 -179.5 27t-69.5 93q0 28 15 50.5t40 35.5v5q-54 29 -54 94q0 40 23 67.5t59 37.5v6q-32 27 -49.5 65t-17.5 85q0 59 29.5 104.5t83.5 70t124 24.5q48 0 88 -12q48 82 129 82
q32 0 54 -15.5t22 -43.5q0 -25 -13 -41.5t-40 -16.5q-13 0 -22 4.5t-19 12.5q-10 7 -15.5 10.5t-14.5 3.5q-17 0 -31 -16zM363 225.5q25 28.5 25 76.5q0 42 -14.5 83.5t-42.5 68t-65 26.5q-40 0 -66 -28.5t-26 -75.5q0 -39 15 -80.5t43.5 -70t67.5 -28.5q38 0 63 28.5z
M134.5 -60q-10.5 -15 -10.5 -32q0 -34 39 -53.5t116 -19.5q50 0 86.5 12t55.5 30t19 35q0 19 -11 28t-39.5 12t-88.5 3q-77 0 -136 8q-20 -8 -30.5 -23z" />
    <glyph glyph-name="uni0122" unicode="&#x122;" horiz-adv-x="730" 
d="M681 302q-14 -20 -14 -52v-250h-41l-40 63h-4q-37 -39 -89 -60.5t-117 -21.5q-104 0 -181 48t-118.5 131.5t-41.5 188.5q0 103 44.5 187.5t122.5 133.5t176 49q37 0 90 -11q40 -8 55 -8q27 0 49.5 6.5t31.5 12.5h12l43 -227l-41 -8q-27 75 -83 122.5t-140 47.5
q-50 0 -97.5 -32.5t-77 -91t-29.5 -134.5q0 -101 32 -173.5t87.5 -110.5t126.5 -38q42 0 76 18v158q0 34 -16 52t-46 26l6 33h255l6 -33q-23 -6 -37 -26zM451.5 -88.5q27.5 -31.5 27.5 -83.5q0 -71 -42 -140t-109 -108l-35 45q40 27 66.5 66.5t37.5 87.5l-2 2q-14 -7 -26 -7
q-36 0 -61.5 24t-25.5 61t28.5 60.5t69.5 23.5q44 0 71.5 -31.5z" />
    <glyph glyph-name="uni0123" unicode="&#x123;" horiz-adv-x="578" 
d="M211.5 628.5q-27.5 31.5 -27.5 83.5q0 71 42 140t109 108l35 -45q-40 -27 -66.5 -66t-37.5 -87l3 -3q14 7 26 7q36 0 61 -24t25 -61t-28.5 -60.5t-69.5 -23.5q-44 0 -71.5 31.5zM419 509q47 -27 73.5 -70.5t26.5 -101.5q0 -60 -29 -105.5t-82 -70t-123 -24.5
q-66 0 -120 23q-19 -4 -29 -13.5t-10 -20.5q0 -19 19.5 -29t64.5 -14.5t127 -4.5q120 0 170.5 -30t50.5 -95q0 -55 -37 -95t-100.5 -61t-143.5 -21q-110 0 -179.5 27t-69.5 93q0 28 15 50.5t40 35.5v5q-54 29 -54 94q0 40 23 67.5t59 37.5v6q-32 27 -49.5 65t-17.5 85
q0 59 29.5 104.5t83.5 70t124 24.5q48 0 88 -12q48 82 129 82q32 0 54 -15.5t22 -43.5q0 -25 -13 -41.5t-40 -16.5q-13 0 -22 4.5t-19 12.5q-10 7 -15.5 10.5t-14.5 3.5q-17 0 -31 -16zM363 225.5q25 28.5 25 76.5q0 42 -14.5 83.5t-42.5 68t-65 26.5q-40 0 -66 -28.5
t-26 -75.5q0 -39 15 -80.5t43.5 -70t67.5 -28.5q38 0 63 28.5zM134.5 -60q-10.5 -15 -10.5 -32q0 -34 39 -53.5t116 -19.5q50 0 86.5 12t55.5 30t19 35q0 19 -11 28t-39.5 12t-88.5 3q-77 0 -136 8q-20 -8 -30.5 -23z" />
    <glyph glyph-name="Hcircumflex" unicode="&#x124;" horiz-adv-x="750" 
d="M214 774l161 137l161 -137l-22 -36l-139 62l-138 -62zM690.5 60q14.5 -20 36.5 -26l-5 -34h-246l-6 34q22 6 36.5 26t14.5 52v212h-291v-212q0 -32 14 -52t37 -26l-6 -34h-246l-6 34q23 6 37 26t14 52v476q0 32 -14 52t-37 26l6 34h245l7 -34q-23 -6 -37 -26t-14 -52
v-188h291v188q0 32 -14.5 52t-36.5 26l6 34h246l5 -34q-22 -6 -36.5 -26t-14.5 -52v-476q0 -32 14.5 -52z" />
    <glyph glyph-name="hcircumflex" unicode="&#x125;" horiz-adv-x="641" 
d="M3 773l-23 36l161 137l161 -137l-22 -36l-139 62zM588 59.5q16 -20.5 39 -26.5l-6 -33h-223l-6 33q22 6 34 26.5t9 51.5l-24 248q-4 55 -31 84t-68 29q-44 0 -75 -29.5t-31 -75.5v-256q0 -32 14 -52t37 -26l-6 -33h-224l-6 33q23 6 37 26t14 52v477q0 32 -14 52t-37 26
l6 33q44 8 92 26t90 47l12 -5q-15 -56 -15 -172v-120h7q21 29 56.5 47.5t80.5 18.5q87 0 139.5 -54t61.5 -162l18 -214q3 -31 19 -51.5z" />
    <glyph glyph-name="Hbar" unicode="&#x126;" horiz-adv-x="793" 
d="M712 59.5q14 -20.5 37 -26.5l-6 -33h-246l-6 33q23 6 37 26.5t14 52.5v212h-291v-212q0 -32 14 -52.5t37 -26.5l-6 -33h-246l-6 33q23 6 37 26.5t14 52.5v369h-84v51h84v56q0 32 -14 52t-37 26l6 34h246l6 -34q-23 -6 -37 -26t-14 -52v-56h291v56q0 32 -14 52t-37 26
l6 34h246l6 -34q-23 -6 -37 -26t-14 -52v-56h82l2 -51h-84v-369q0 -32 14 -52.5zM542 481h-291v-81h291v81z" />
    <glyph glyph-name="hbar" unicode="&#x127;" horiz-adv-x="676" 
d="M624 59.5q16 -20.5 39 -26.5l-7 -33h-223l-6 33q22 6 34 26.5t9 52.5l-23 247q-4 55 -31.5 84t-67.5 29q-44 0 -75.5 -30t-31.5 -75v-255q0 -32 14.5 -52.5t36.5 -26.5l-6 -33h-223l-6 33q22 6 36 26.5t14 52.5v457h-110v50h106q-12 39 -46 47l6 34q43 7 91 25t91 47
l11 -5q-13 -48 -15 -148h139v-50h-139v-95h7q21 29 56.5 48t80.5 19q87 0 139.5 -53.5t62.5 -161.5l17 -214q4 -32 20 -52.5z" />
    <glyph glyph-name="Itilde" unicode="&#x128;" horiz-adv-x="304" 
d="M177 795.5q-17 7.5 -39 21.5q-18 12 -30.5 17.5t-25.5 5.5q-14 0 -25 -9.5t-15 -29.5l-45 12q6 55 32.5 80.5t61.5 25.5q20 0 36.5 -7t41.5 -21q18 -12 30.5 -17.5t25.5 -5.5q14 0 25 9t15 29l43 -11q-6 -56 -32 -81.5t-62 -25.5q-20 0 -37 7.5zM60 60q14 20 14 52v476
q0 32 -14 52t-37 26l6 34h246l6 -34q-23 -6 -37 -26t-14 -52v-476q0 -32 14 -52t37 -26l-6 -34h-246l-6 34q23 6 37 26z" />
    <glyph glyph-name="itilde" unicode="&#x129;" 
d="M163.5 617.5q-17.5 7.5 -39.5 21.5q-18 11 -30.5 17t-24.5 6q-14 0 -25.5 -9.5t-15.5 -29.5l-45 12q7 56 33 81t61 25q20 0 37.5 -7.5t40.5 -21.5q22 -12 33 -17t23 -5q14 0 25 9t16 29l43 -11q-6 -56 -32.5 -81.5t-61.5 -25.5q-20 0 -37.5 7.5zM58 59q14 20 14 52v250
q0 32 -14 52t-37 26l6 33q87 13 165 69h14v-430q0 -32 14 -52t37 -26l-6 -33h-224l-6 33q23 6 37 26z" />
    <glyph glyph-name="Imacron" unicode="&#x12a;" horiz-adv-x="304" 
d="M299 866v-69h-293v69h293zM60 60q14 20 14 52v476q0 32 -14 52t-37 26l6 34h246l6 -34q-23 -6 -37 -26t-14 -52v-476q0 -32 14 -52t37 -26l-6 -34h-246l-6 34q23 6 37 26z" />
    <glyph glyph-name="imacron" unicode="&#x12b;" 
d="M286 688v-69h-294v69h294zM58 59q14 20 14 52v250q0 32 -14 52t-37 26l6 33q87 13 165 69h14v-430q0 -32 14 -52t37 -26l-6 -33h-224l-6 33q23 6 37 26z" />
    <glyph glyph-name="Iogonek" unicode="&#x12e;" horiz-adv-x="304" 
d="M246 -197.5q-31 -19.5 -77 -19.5q-54 0 -87 29t-33 74q0 66 62 114h-82l-6 34q23 6 37 26t14 52v476q0 32 -14 52t-37 26l6 34h246l6 -34q-23 -6 -37 -26t-14 -52v-476q0 -32 14 -52t37 -26l-6 -34h-69q-30 -19 -47.5 -45.5t-17.5 -55.5q0 -24 16 -40t38 -16q41 0 65 42
l41 -22q-24 -41 -55 -60.5z" />
    <glyph glyph-name="iogonek" unicode="&#x12f;" horiz-adv-x="281" 
d="M76.5 623q-22.5 23 -22.5 55q0 33 22.5 57t61.5 24q38 0 62 -24.5t24 -56.5q0 -31 -24 -54.5t-62 -23.5q-39 0 -61.5 23zM220.5 -197.5q-31.5 -19.5 -76.5 -19.5q-55 0 -88 29t-33 74q0 65 62 114h-56l-6 33q23 6 37 26t14 52v250q0 32 -14 52t-37 26l6 33q88 13 166 69
h13v-430q0 -32 14 -52t38 -26l-7 -33h-72q-31 -19 -48 -45.5t-17 -55.5q0 -24 16 -40t38 -16q40 0 64 42l41 -22q-23 -41 -54.5 -60.5z" />
    <glyph glyph-name="Idotaccent" unicode="&#x130;" horiz-adv-x="304" 
d="M100.5 808q-19.5 20 -19.5 46q0 28 19.5 48.5t51.5 20.5t51.5 -20.5t19.5 -48.5q0 -26 -19.5 -46t-51.5 -20t-51.5 20zM60 60q14 20 14 52v476q0 32 -14 52t-37 26l6 34h246l6 -34q-23 -6 -37 -26t-14 -52v-476q0 -32 14 -52t37 -26l-6 -34h-246l-6 34q23 6 37 26z" />
    <glyph glyph-name="dotlessi" unicode="&#x131;" 
d="M58 59q14 20 14 52v250q0 32 -14 52t-37 26l6 33q87 13 165 69h14v-430q0 -32 14 -52t37 -26l-6 -33h-224l-6 33q23 6 37 26z" />
    <glyph glyph-name="IJ" unicode="&#x132;" horiz-adv-x="608" 
d="M57 60q14 20 14 52v476q0 32 -14 52t-37 26l6 34h246l6 -34q-23 -6 -37 -26t-14 -52v-476q0 -32 14 -52t37 -26l-6 -34h-246l-6 34q23 6 37 26zM182.5 -188.5q-40.5 29.5 -40.5 71.5q0 31 19.5 50t48.5 19q31 0 47 -14.5t29 -41.5q11 -20 20 -30t25 -10q28 0 40.5 34.5
t12.5 114.5v583q0 32 -14 52t-37 26l7 34h245l6 -34q-23 -6 -37 -26t-14 -52v-553q0 -133 -65.5 -193t-173.5 -60q-78 0 -118.5 29.5z" />
    <glyph glyph-name="ij" unicode="&#x133;" horiz-adv-x="534" 
d="M85.5 623q-22.5 23 -22.5 55q0 33 22.5 57t61.5 24q38 0 61.5 -24.5t23.5 -56.5t-23.5 -55t-61.5 -23q-39 0 -61.5 23zM342.5 623q-22.5 23 -22.5 55q0 33 22.5 57t61.5 24q38 0 62 -24.5t24 -56.5q0 -31 -24 -54.5t-62 -23.5q-39 0 -61.5 23zM69 59q14 20 14 52v250
q0 32 -14 52t-37 26l6 33q88 14 166 69h13v-430q0 -32 14 -52t37 -26l-6 -33h-224l-6 33q23 6 37 26zM202.5 -194q-38.5 30 -38.5 75q0 25 17 42.5t44 17.5q33 0 44 -16t16 -48q4 -26 11.5 -39t28.5 -13q20 0 31.5 21t11.5 50q0 25 -12 73q-8 31 -11.5 50t-3.5 43v299
q0 31 -14.5 51.5t-36.5 26.5l6 33q87 13 165 69h14v-576q0 -88 -43 -138.5t-127 -50.5q-64 0 -102.5 30z" />
    <glyph glyph-name="Jcircumflex" unicode="&#x134;" horiz-adv-x="311" 
d="M156 911l161 -137l-23 -36l-138 62l-139 -62l-23 36zM-115.5 -178q-40.5 30 -40.5 72q0 30 20 49.5t48 19.5q32 0 48 -15t29 -42q11 -20 20 -29.5t24 -9.5q28 0 40.5 34.5t12.5 114.5v572q0 32 -14 52t-36 26l6 34h245l6 -34q-23 -5 -36.5 -25t-13.5 -53v-542
q0 -133 -66 -193.5t-174 -60.5q-78 0 -118.5 30z" />
    <glyph glyph-name="jcircumflex" unicode="&#x135;" horiz-adv-x="280" 
d="M141 733l161 -137l-23 -36l-138 62l-139 -62l-23 36zM-61.5 -194q-38.5 30 -38.5 75q0 25 17 42.5t44 17.5q33 0 44 -16t16 -48q4 -26 11.5 -39t29.5 -13q19 0 30.5 21t11.5 50q0 25 -12 73q-8 31 -11.5 50t-3.5 43v299q0 32 -14 52t-37 26l6 33q87 13 165 69h14v-576
q0 -88 -43 -138.5t-127 -50.5q-64 0 -102.5 30z" />
    <glyph glyph-name="uni0136" unicode="&#x136;" horiz-adv-x="738" 
d="M749 34l-7 -34h-274l-6 34q12 3 19 11.5t7 21.5q0 19 -16 45l-151 247h-6l-85 -77v-170q0 -32 14 -52t37 -26l-6 -34h-246l-6 34q23 6 37 26t14 52v476q0 32 -14 52t-37 26l6 34h246l6 -34q-23 -6 -37 -26t-14 -52v-205h6l224 205q28 25 28 47q0 11 -7.5 19.5t-17.5 11.5
l6 34h231l6 -34q-29 -6 -66 -26t-72 -52l-130 -118l218 -358q40 -67 93 -78zM414.5 -88.5q27.5 -31.5 27.5 -83.5q0 -71 -42 -140t-109 -108l-35 45q40 27 66.5 66.5t37.5 87.5l-2 2q-14 -7 -27 -7q-35 0 -60.5 24t-25.5 61t28.5 60.5t69.5 23.5q44 0 71.5 -31.5z" />
    <glyph glyph-name="uni0137" unicode="&#x137;" horiz-adv-x="622" 
d="M576 59q27 -20 53 -26l-6 -33h-248l-6 33q20 6 20 27t-20 51l-111 169h-8l-44 -48v-121q0 -32 14 -52t37 -26l-6 -33h-224l-6 33q22 6 36.5 26.5t14.5 51.5v477q0 32 -14.5 52t-36.5 26l6 33q44 8 92 26t90 47l12 -5q-15 -56 -15 -172v-267h6l102 115q40 47 79 72.5
t91 25.5q49 0 78.5 -23.5t29.5 -63.5q0 -37 -19 -60.5t-55 -23.5q-22 0 -35.5 8.5t-28.5 24.5q-11 13 -20.5 19.5t-22.5 6.5q-23 0 -64 -42l180 -276q22 -32 49 -52zM378.5 -88.5q27.5 -31.5 27.5 -83.5q0 -71 -42 -140t-109 -108l-35 45q40 27 66.5 66.5t37.5 87.5l-2 2
q-14 -7 -27 -7q-35 0 -60.5 24t-25.5 61t28.5 60.5t69.5 23.5q44 0 71.5 -31.5z" />
    <glyph glyph-name="kgreenlandic" unicode="&#x138;" horiz-adv-x="612" 
d="M576 59q27 -20 53 -26l-6 -33h-248l-6 33q20 6 20 27t-20 51l-111 169h-8l-44 -48v-121q0 -32 14 -52t37 -26l-6 -33h-224l-6 33q22 6 36.5 26.5t14.5 51.5v250q0 32 -14.5 52t-36.5 25l6 34q41 7 79 23t82 46h18v-213h6l102 115q40 47 79 72.5t91 25.5q49 0 78.5 -23.5
t29.5 -63.5q0 -37 -19 -60.5t-55 -23.5q-22 0 -35.5 8.5t-28.5 24.5q-11 13 -20.5 19.5t-22.5 6.5q-23 0 -64 -42l180 -276q22 -32 49 -52z" />
    <glyph glyph-name="Lacute" unicode="&#x139;" horiz-adv-x="618" 
d="M118 771l96 124q13 18 26.5 26.5t33.5 8.5q19 0 31.5 -12.5t12.5 -29.5q0 -33 -36 -56l-130 -89zM552 -17h-13q-15 7 -60 12t-80 5h-370l-6 34q23 6 37 26t14 52v476q0 32 -14 52t-37 26l6 34h246l6 -34q-23 -6 -37 -26t-14 -52v-515q54 -8 107 -8q81 0 143.5 40t96.5 98
l37 -16z" />
    <glyph glyph-name="lacute" unicode="&#x13a;" 
d="M177 929q13 18 26.5 26.5t33.5 8.5q19 0 31.5 -12.5t12.5 -29.5q0 -33 -36 -56l-130 -89l-34 28zM58 59q14 20 14 52v477q0 32 -14 52t-37 26l7 33q44 8 91.5 26t89.5 47l12 -5q-15 -56 -15 -172v-484q0 -31 14.5 -51.5t36.5 -26.5l-6 -33h-223l-7 33q23 6 37 26z" />
    <glyph glyph-name="uni013B" unicode="&#x13b;" horiz-adv-x="621" 
d="M552 -17h-13q-15 7 -60 12t-80 5h-370l-6 34q23 6 37 26t14 52v476q0 32 -14 52t-37 26l6 34h246l6 -34q-23 -6 -37 -26t-14 -52v-515q54 -8 107 -8q81 0 143.5 40t96.5 98l37 -16zM382.5 -88.5q27.5 -31.5 27.5 -83.5q0 -71 -42 -140t-109 -108l-35 45q39 27 66 66.5
t39 87.5l-2 2q-16 -7 -27 -7q-36 0 -61 24t-25 61t28.5 60.5t68.5 23.5q44 0 71.5 -31.5z" />
    <glyph glyph-name="uni013C" unicode="&#x13c;" 
d="M220.5 59.5q14.5 -20.5 36.5 -26.5l-6 -33h-223l-7 33q23 6 37 26t14 52v477q0 32 -14 52t-37 26l7 33q44 8 91.5 26t89.5 47l12 -5q-15 -56 -15 -172v-484q0 -31 14.5 -51.5zM218.5 -88.5q27.5 -31.5 27.5 -83.5q0 -71 -42 -140t-109 -108l-35 45q40 27 66.5 66.5
t37.5 87.5l-2 2q-14 -7 -26 -7q-36 0 -61.5 24t-25.5 61t28.5 60.5t69.5 23.5q44 0 71.5 -31.5z" />
    <glyph glyph-name="Lcaron" unicode="&#x13d;" horiz-adv-x="618" 
d="M365 574q-25 24 -25 61t28.5 60.5t68.5 23.5q45 0 72.5 -31.5t27.5 -83.5q0 -71 -42 -140t-109 -108l-35 45q39 27 65.5 66t38.5 87l-3 3q-14 -7 -26 -7q-36 0 -61 24zM552 -17h-13q-15 7 -60 12t-80 5h-370l-6 34q23 6 37 26t14 52v476q0 32 -14 52t-37 26l6 34h246
l6 -34q-23 -6 -37 -26t-14 -52v-515q54 -8 107 -8q81 0 143.5 40t96.5 98l37 -16z" />
    <glyph glyph-name="lcaron" unicode="&#x13e;" horiz-adv-x="498" 
d="M224.5 59.5q14.5 -20.5 36.5 -26.5l-6 -33h-223l-7 33q23 6 37 26t14 52v477q0 32 -14 52t-37 26l7 33q44 8 91.5 26t89.5 47l12 -5q-15 -56 -15 -172v-484q0 -31 14.5 -51.5zM431.5 687.5q27.5 -31.5 27.5 -83.5q0 -71 -42 -140t-109 -108l-35 45q40 27 66.5 66t37.5 87
l-3 3q-14 -7 -26 -7q-35 0 -60.5 24t-25.5 61t28.5 60.5t69.5 23.5q44 0 71.5 -31.5z" />
    <glyph glyph-name="Ldot" unicode="&#x13f;" horiz-adv-x="618" 
d="M552 -17h-13q-15 7 -60 12t-80 5h-370l-6 34q23 6 37 26t14 52v476q0 32 -14 52t-37 26l6 34h246l6 -34q-23 -6 -37 -26t-14 -52v-515q54 -8 107 -8q81 0 143.5 40t96.5 98l37 -16zM347.5 301.5q-26.5 25.5 -26.5 66.5q0 40 27 65.5t65 25.5t65.5 -25.5t27.5 -65.5
q0 -41 -27 -66.5t-66 -25.5t-65.5 25.5z" />
    <glyph glyph-name="ldot" unicode="&#x140;" horiz-adv-x="447" 
d="M63 59q14 20 14 52v477q0 32 -14 52t-37 26l7 33q44 8 91.5 26t89.5 47l12 -5q-10 -36 -12 -77t-2 -95v-484q0 -32 14 -52t36 -26l-6 -33h-223l-7 33q23 6 37 26zM288.5 301.5q-26.5 25.5 -26.5 66.5q0 40 27 65.5t65 25.5t65.5 -25.5t27.5 -65.5q0 -41 -27 -66.5
t-66 -25.5t-65.5 25.5z" />
    <glyph glyph-name="Lslash" unicode="&#x141;" horiz-adv-x="638" 
d="M572 -18h-13q-15 8 -59 13t-81 5h-370l-6 33q23 6 37 26.5t14 52.5v198l-96 -57v51l96 56v228q0 32 -14 52t-37 26l6 34h246l6 -34q-23 -6 -37 -26t-14 -52v-136l99 58v-50l-99 -58v-329q54 -8 107 -8q81 0 143.5 40.5t97.5 98.5l36 -17z" />
    <glyph glyph-name="lslash" unicode="&#x142;" horiz-adv-x="288" 
d="M210 112q0 -32 14 -52.5t37 -26.5l-6 -33h-224l-6 33q23 6 37 26.5t14 52.5v106l-63 -37v50l63 37v320q0 32 -14 52t-37 26l6 34q43 6 91.5 24t91.5 48l12 -5q-16 -60 -16 -172v-247l65 38v-51l-65 -38v-185z" />
    <glyph glyph-name="Nacute" unicode="&#x143;" horiz-adv-x="697" 
d="M306 771l96 124q15 18 28 26.5t32 8.5t32 -12.5t13 -29.5q0 -19 -10 -32t-27 -24l-129 -89zM643.5 640q-14.5 -20 -14.5 -52v-588h-78q-17 50 -47 93t-64 76.5t-91 84.5q-78 69 -125.5 120t-80.5 118h-4v-380q0 -32 14 -52t37 -26l-6 -34h-155l-6 34q23 5 36.5 25
t13.5 53v476q0 33 -13.5 53t-36.5 25l6 34h141q44 -81 97 -142t131 -136q68 -66 104 -107t58 -90h5v363q0 32 -14 52t-37 26l6 34h155l6 -34q-23 -6 -37.5 -26z" />
    <glyph glyph-name="nacute" unicode="&#x144;" horiz-adv-x="643" 
d="M247 593l95 124q14 18 27.5 26.5t32.5 8.5t32 -12.5t13 -29.5q0 -19 -10 -32t-27 -24l-129 -89zM582 59q16 -20 40 -26l-6 -33h-224l-7 33q20 5 32 21.5t12 42.5q0 9 -1 14l-20 224q-5 58 -30.5 90.5t-70.5 32.5q-44 0 -73 -33t-29 -82v-232q0 -32 14.5 -52t37.5 -26
l-7 -33h-223l-5 33q22 6 35.5 26t13.5 52v246q0 32 -13.5 52.5t-36.5 25.5l6 33q78 13 159 73h13l3 -81h5q23 36 59.5 58.5t86.5 22.5q174 0 193 -216l17 -214q3 -32 19 -52z" />
    <glyph glyph-name="uni0145" unicode="&#x145;" horiz-adv-x="700" 
d="M643.5 640q-14.5 -20 -14.5 -52v-588h-78q-17 50 -47 93t-64 76.5t-91 84.5q-78 69 -125.5 120t-80.5 118h-4v-380q0 -32 14 -52t37 -26l-6 -34h-155l-6 34q23 5 36.5 25t13.5 53v476q0 33 -13.5 53t-36.5 25l6 34h141q44 -81 97 -142t131 -136q68 -66 104 -107t58 -90h5
v363q0 32 -14 52t-37 26l6 34h155l6 -34q-23 -6 -37.5 -26zM429.5 -88.5q27.5 -31.5 27.5 -83.5q0 -71 -42 -140t-109 -108l-35 45q40 27 66.5 66.5t37.5 87.5l-2 2q-14 -7 -26 -7q-36 0 -61.5 24t-25.5 61t28.5 60.5t69.5 23.5q44 0 71.5 -31.5z" />
    <glyph glyph-name="uni0146" unicode="&#x146;" horiz-adv-x="641" 
d="M582 59q16 -20 40 -26l-6 -33h-224l-7 33q20 5 32 21.5t12 42.5q0 9 -1 14l-20 224q-5 58 -30.5 90.5t-70.5 32.5q-44 0 -73 -33t-29 -82v-232q0 -32 14.5 -52t37.5 -26l-7 -33h-223l-5 33q22 6 35.5 26t13.5 52v246q0 32 -13.5 52.5t-36.5 25.5l6 33q78 13 159 73h13
l3 -81h5q23 36 59.5 58.5t86.5 22.5q174 0 193 -216l17 -214q3 -32 19 -52zM390.5 -88.5q27.5 -31.5 27.5 -83.5q0 -71 -42 -140t-109 -108l-35 45q40 27 66.5 66.5t37.5 87.5l-2 2q-14 -7 -26 -7q-36 0 -61.5 24t-25.5 61t28.5 60.5t69.5 23.5q44 0 71.5 -31.5z" />
    <glyph glyph-name="Ncaron" unicode="&#x147;" horiz-adv-x="697" 
d="M187 879l22 36l139 -62l138 62l23 -36l-161 -137zM643.5 640q-14.5 -20 -14.5 -52v-588h-78q-17 50 -47 93t-64 76.5t-91 84.5q-78 69 -125.5 120t-80.5 118h-4v-380q0 -32 14 -52t37 -26l-6 -34h-155l-6 34q23 5 36.5 25t13.5 53v476q0 33 -13.5 53t-36.5 25l6 34h141
q44 -81 97 -142t131 -136q68 -66 104 -107t58 -90h5v363q0 32 -14 52t-37 26l6 34h155l6 -34q-23 -6 -37.5 -26z" />
    <glyph glyph-name="ncaron" unicode="&#x148;" horiz-adv-x="643" 
d="M160 701l23 36l139 -62l137 62l24 -36l-161 -137zM582 59q16 -20 40 -26l-6 -33h-224l-7 33q20 5 32 21.5t12 42.5q0 9 -1 14l-20 224q-5 58 -30.5 90.5t-70.5 32.5q-44 0 -73 -33t-29 -82v-232q0 -32 14.5 -52t37.5 -26l-7 -33h-223l-5 33q22 6 35.5 26t13.5 52v246
q0 32 -13.5 52.5t-36.5 25.5l6 33q78 13 159 73h13l3 -81h5q23 36 59.5 58.5t86.5 22.5q174 0 193 -216l17 -214q3 -32 19 -52z" />
    <glyph glyph-name="napostrophe" unicode="&#x149;" horiz-adv-x="826" 
d="M190.5 687.5q27.5 -31.5 27.5 -83.5q0 -71 -42 -140t-109 -108l-35 45q40 27 66.5 66t37.5 87l-3 3q-14 -7 -26 -7q-35 0 -60.5 24t-25.5 61t28.5 60.5t69.5 23.5q44 0 71.5 -31.5zM765.5 59.5q16.5 -20.5 39.5 -26.5l-6 -33h-224l-6 33q22 6 34 26t9 52l-21 224
q-5 58 -30 90.5t-70 32.5t-74 -33t-29 -82v-232q0 -32 14.5 -52t37.5 -26l-7 -33h-223l-5 33q22 6 36 26t14 52v246q0 32 -14 52.5t-37 25.5l6 33q78 13 159 73h13l3 -81h5q54 81 146 81q86 0 135 -53.5t58 -162.5l18 -214q2 -31 18.5 -51.5z" />
    <glyph glyph-name="Eng" unicode="&#x14a;" horiz-adv-x="697" 
d="M643.5 640q-14.5 -20 -14.5 -52v-593q0 -214 -180 -214q-44 0 -78.5 13t-54 35t-19.5 48q0 27 16.5 44.5t40.5 17.5q27 0 40 -12t25 -36q12 -23 24 -34.5t37 -11.5q38 0 60.5 38t22.5 112v11q-25 69 -73 121.5t-134 124.5q-81 69 -130.5 120.5t-82.5 118.5h-5l1 -379
q0 -32 14 -52.5t37 -26.5l-6 -33h-155l-6 33q22 6 36 26.5t14 52.5v476q0 32 -14 52t-36 26l6 34h136q44 -82 97.5 -141t134.5 -133q67 -61 104 -101.5t59 -88.5h3l1 352q0 32 -14.5 52t-37.5 26l7 34h155l6 -34q-22 -6 -36.5 -26z" />
    <glyph glyph-name="eng" unicode="&#x14b;" horiz-adv-x="623" 
d="M505.5 487q49.5 -54 49.5 -161v-362q0 -87 -50 -137.5t-143 -50.5q-64 0 -110 28.5t-46 72.5q0 25 15 42t42 17t37 -14.5t16 -43.5q6 -28 14.5 -41t31.5 -13q55 0 55 140l1 370q0 57 -26.5 90.5t-72.5 33.5t-80 -33.5t-34 -80.5v-232q0 -32 14.5 -52.5t36.5 -26.5l-6 -33
h-223l-6 33q22 6 36 26.5t14 52.5v245q0 32 -14 52t-36 26l6 34q74 11 159 72h13l3 -81h7q21 34 64.5 57.5t94.5 23.5q88 0 137.5 -54z" />
    <glyph glyph-name="Omacron" unicode="&#x14c;" horiz-adv-x="762" 
d="M528 866v-69h-294v69h294zM210 29q-80 48 -127.5 131.5t-47.5 187.5q0 108 42.5 192.5t120.5 131.5t182 47q94 0 173.5 -48.5t126.5 -134t47 -191.5q0 -104 -44.5 -187t-123 -130t-175.5 -47q-94 0 -174 48zM500 75q35 30 54 78.5t19 102.5q0 90 -30 183t-84.5 154
t-124.5 61q-46 0 -81 -29t-54 -78t-19 -106q0 -95 30 -187t84.5 -150.5t124.5 -58.5q46 0 81 30z" />
    <glyph glyph-name="omacron" unicode="&#x14d;" horiz-adv-x="602" 
d="M448 688v-69h-294v69h294zM160.5 18q-63.5 37 -98 102t-34.5 145t34 142.5t95.5 98t142.5 35.5t143.5 -36.5t96.5 -100.5t34 -145q0 -80 -33 -143.5t-94 -99t-141 -35.5q-82 0 -145.5 37zM415.5 93.5q29.5 43.5 29.5 110.5q0 51 -21 114.5t-60.5 109t-91.5 45.5
q-54 0 -84 -43t-30 -112q0 -52 21 -115t61 -108t93 -45t82.5 43.5z" />
    <glyph glyph-name="Obreve" unicode="&#x14e;" horiz-adv-x="762" 
d="M285 801.5q-38 28.5 -54 72.5l45 24q10 -24 39.5 -39.5t65.5 -15.5t66 15.5t40 38.5l44 -23q-16 -44 -54 -72.5t-96 -28.5t-96 28.5zM210 29q-80 48 -127.5 131.5t-47.5 187.5q0 108 42.5 192.5t120.5 131.5t182 47q94 0 173.5 -48.5t126.5 -134t47 -191.5
q0 -104 -44.5 -187t-123 -130t-175.5 -47q-94 0 -174 48zM500 75q35 30 54 78.5t19 102.5q0 90 -30 183t-84.5 154t-124.5 61q-46 0 -81 -29t-54 -78t-19 -106q0 -95 30 -187t84.5 -150.5t124.5 -58.5q46 0 81 30z" />
    <glyph glyph-name="obreve" unicode="&#x14f;" horiz-adv-x="602" 
d="M205 623.5q-38 28.5 -54 72.5l45 24q10 -24 39.5 -39.5t65.5 -15.5t66 15.5t40 38.5l44 -23q-16 -44 -54 -72.5t-96 -28.5t-96 28.5zM160.5 18q-63.5 37 -98 102t-34.5 145t34 142.5t95.5 98t142.5 35.5t143.5 -36.5t96.5 -100.5t34 -145q0 -80 -33 -143.5t-94 -99
t-141 -35.5q-82 0 -145.5 37zM415.5 93.5q29.5 43.5 29.5 110.5q0 51 -21 114.5t-60.5 109t-91.5 45.5q-54 0 -84 -43t-30 -112q0 -52 21 -115t61 -108t93 -45t82.5 43.5z" />
    <glyph glyph-name="Ohungarumlaut" unicode="&#x150;" horiz-adv-x="762" 
d="M300 891q8 23 21 34t35 11q20 0 31.5 -13t11.5 -30q0 -13 -5.5 -23t-15.5 -25l-81 -107l-46 19zM443 891q8 23 20.5 34t35.5 11q20 0 31.5 -13t11.5 -30q0 -13 -5.5 -23t-15.5 -25l-81 -107l-46 19zM210 29q-80 48 -127.5 131.5t-47.5 187.5q0 108 42.5 192.5
t120.5 131.5t182 47q94 0 173.5 -48.5t126.5 -134t47 -191.5q0 -104 -44.5 -187t-123 -130t-175.5 -47q-94 0 -174 48zM500 75q35 30 54 78.5t19 102.5q0 90 -30 183t-84.5 154t-124.5 61q-46 0 -81 -29t-54 -78t-19 -106q0 -95 30 -187t84.5 -150.5t124.5 -58.5q46 0 81 30
z" />
    <glyph glyph-name="ohungarumlaut" unicode="&#x151;" horiz-adv-x="602" 
d="M217 713q8 23 20.5 34t35.5 11q20 0 31 -13t11 -30q0 -13 -5.5 -23t-15.5 -25l-81 -107l-46 19zM360 713q8 23 20.5 34t34.5 11q20 0 31.5 -13t11.5 -30q0 -13 -5.5 -23t-15.5 -25l-81 -107l-46 19zM160.5 18q-63.5 37 -98 102t-34.5 145t34 142.5t95.5 98t142.5 35.5
t143.5 -36.5t96.5 -100.5t34 -145q0 -80 -33 -143.5t-94 -99t-141 -35.5q-82 0 -145.5 37zM415.5 93.5q29.5 43.5 29.5 110.5q0 51 -21 114.5t-60.5 109t-91.5 45.5q-54 0 -84 -43t-30 -112q0 -52 21 -115t61 -108t93 -45t82.5 43.5z" />
    <glyph glyph-name="OE" unicode="&#x152;" horiz-adv-x="1117" 
d="M1054 -18h-12q-15 8 -59.5 13t-80.5 5h-390q-63 -18 -134 -18q-93 0 -173.5 48t-128 132t-47.5 187q0 108 42.5 192.5t121 131.5t182.5 47q65 0 131 -20h528l40 -159l-35 -13q-24 44 -82 75t-146 31q-55 0 -105 -10v-231h186q32 0 53.5 14t26.5 38l34 -6v-158l-34 -6
q-6 24 -27 38t-53 14h-186v-251q75 -11 134 -11q81 0 142 36.5t93 88.5l36 -17zM206 239q32 -86 90.5 -139t133.5 -53q32 0 64.5 10.5t54.5 29.5q1 5 1 16v461q-31 42 -78.5 67t-111.5 25q-58 0 -100 -33t-64 -87.5t-22 -117.5q0 -93 32 -179z" />
    <glyph glyph-name="oe" unicode="&#x153;" horiz-adv-x="978" 
d="M855.5 114.5q40.5 27.5 60.5 63.5l29 -11q-6 -47 -37 -90t-83 -69.5t-118 -26.5q-58 0 -112.5 27.5t-91.5 75.5q-34 -48 -87 -75.5t-119 -27.5q-79 0 -140.5 37t-95 102t-33.5 145q0 79 33 142t92.5 98.5t137.5 35.5q66 0 119.5 -27t88.5 -75q35 48 88 74.5t114 27.5
q82 0 138.5 -37.5t80.5 -97.5q15 -37 35 -42l8 -43l-395 -70q15 -81 65.5 -122.5t131.5 -41.5q50 0 90.5 27.5zM623.5 453.5q-28.5 -21.5 -44.5 -57.5t-16 -78v-3l242 40q-5 50 -35.5 85t-82.5 35q-35 0 -63.5 -21.5zM416 93q30 44 30 111q0 51 -21.5 114.5t-60.5 109
t-91 45.5q-55 0 -85 -43t-30 -112q0 -52 21.5 -115.5t61 -108.5t92.5 -45t83 44z" />
    <glyph glyph-name="Racute" unicode="&#x154;" horiz-adv-x="749" 
d="M274 771l96 124q15 18 28 26.5t32 8.5t32 -12.5t13 -29.5q0 -19 -10 -32t-27 -24l-129 -89zM654 -16q-133 0 -162 137q-14 73 -33 109.5t-54 51t-100 14.5h-75v-184q0 -32 14 -52t37 -26l-6 -34h-246l-6 34q23 6 37 26t14 52v476q0 32 -14 52t-37 26l6 34h363
q133 0 213 -53t80 -147q0 -70 -43 -117.5t-126 -67.5v-8q47 -6 74 -26t41.5 -50.5t25.5 -79.5q10 -42 19 -65t27.5 -35t51.5 -10l3 -37q-58 -20 -104 -20zM230 626v-261h121q89 0 132.5 34.5t43.5 95.5q0 66 -50.5 103t-136.5 37q-61 0 -110 -9z" />
    <glyph glyph-name="racute" unicode="&#x155;" horiz-adv-x="473" 
d="M111 593l95 124q14 18 28 26.5t33 8.5t31.5 -12.5t12.5 -29.5q0 -19 -10 -32t-27 -24l-129 -89zM436.5 513q29.5 -28 29.5 -69q0 -35 -24 -60t-58 -25q-32 0 -46.5 13t-25.5 38q-9 18 -16.5 26t-21.5 8q-15 0 -31 -13t-26.5 -35.5t-10.5 -48.5v-235q0 -32 14.5 -52
t36.5 -26l-6 -34h-224l-6 34q23 5 36.5 25t13.5 53v244q0 33 -13.5 53t-36.5 25l6 34q71 11 158 73h14l4 -87h4q28 42 67 64.5t84 22.5q49 0 78.5 -28z" />
    <glyph glyph-name="uni0156" unicode="&#x156;" horiz-adv-x="759" 
d="M654 -16q-133 0 -162 137q-14 73 -33 109t-54 50t-100 14h-75v-182q0 -32 14 -52t37 -26l-6 -34h-246l-6 34q23 6 37 26t14 52v476q0 32 -14 52t-37 26l6 34h363q87 0 153.5 -23.5t103 -69t36.5 -107.5q0 -71 -44.5 -119.5t-129.5 -68.5v-7q48 -3 76.5 -22.5t43.5 -50.5
t26 -81q10 -42 19 -65t27.5 -35t51.5 -10l3 -37q-58 -20 -104 -20zM230 626v-263h121q89 0 132.5 35.5t43.5 96.5q0 65 -50.5 102.5t-136.5 37.5q-61 0 -110 -9zM438.5 -88.5q27.5 -31.5 27.5 -83.5q0 -71 -42 -140t-109 -108l-35 45q40 27 66.5 66.5t37.5 87.5l-2 2
q-14 -7 -27 -7q-35 0 -60.5 24t-25.5 61t28.5 60.5t69.5 23.5q44 0 71.5 -31.5z" />
    <glyph glyph-name="uni0157" unicode="&#x157;" horiz-adv-x="474" 
d="M436.5 513q29.5 -28 29.5 -69q0 -35 -24 -60t-58 -25q-32 0 -46.5 13t-25.5 38q-9 18 -16.5 26t-21.5 8q-15 0 -31 -13t-26.5 -35.5t-10.5 -48.5v-235q0 -32 14.5 -52t36.5 -26l-6 -34h-224l-6 34q23 5 36.5 25t13.5 53v244q0 33 -13.5 53t-36.5 25l6 34q71 11 158 73h14
l4 -87h4q28 42 67 64.5t84 22.5q49 0 78.5 -28zM207.5 -88.5q27.5 -31.5 27.5 -83.5q0 -71 -42 -140t-109 -108l-35 45q40 27 66.5 66.5t37.5 87.5l-2 2q-14 -7 -26 -7q-36 0 -61.5 24t-25.5 61t28.5 60.5t69.5 23.5q44 0 71.5 -31.5z" />
    <glyph glyph-name="Rcaron" unicode="&#x158;" horiz-adv-x="749" 
d="M213 879l23 36l139 -62l138 62l23 -36l-161 -137zM654 -16q-133 0 -162 137q-14 73 -33 109.5t-54 51t-100 14.5h-75v-184q0 -32 14 -52t37 -26l-6 -34h-246l-6 34q23 6 37 26t14 52v476q0 32 -14 52t-37 26l6 34h363q133 0 213 -53t80 -147q0 -70 -43 -117.5t-126 -67.5
v-8q47 -6 74 -26t41.5 -50.5t25.5 -79.5q10 -42 19 -65t27.5 -35t51.5 -10l3 -37q-58 -20 -104 -20zM230 626v-261h121q89 0 132.5 34.5t43.5 95.5q0 66 -50.5 103t-136.5 37q-61 0 -110 -9z" />
    <glyph glyph-name="rcaron" unicode="&#x159;" horiz-adv-x="473" 
d="M75 701l23 36l139 -62l137 62l24 -36l-161 -137zM436.5 513q29.5 -28 29.5 -69q0 -35 -24 -60t-58 -25q-32 0 -46.5 13t-25.5 38q-9 18 -16.5 26t-21.5 8q-15 0 -31 -13t-26.5 -35.5t-10.5 -48.5v-235q0 -32 14.5 -52t36.5 -26l-6 -34h-224l-6 34q23 5 36.5 25t13.5 53
v244q0 33 -13.5 53t-36.5 25l6 34q71 11 158 73h14l4 -87h4q28 42 67 64.5t84 22.5q49 0 78.5 -28z" />
    <glyph glyph-name="Sacute" unicode="&#x15a;" horiz-adv-x="675" 
d="M333 895q15 18 28 26.5t32 8.5t32 -12.5t13 -29.5q0 -19 -10 -32t-27 -24l-129 -89l-35 28zM296 -14.5q-24 4.5 -59 14.5q-54 15 -86 15q-29 0 -54 -15h-13l-56 220l40 15q43 -88 115.5 -142t160.5 -54q63 0 105.5 32.5t42.5 83.5q0 41 -26 67t-63.5 40.5t-104.5 34.5
q-78 24 -126 45.5t-82 64t-34 110.5q0 62 34.5 107.5t92.5 70t127 24.5q36 0 61.5 -4.5t66.5 -14.5q39 -12 62 -12q25 0 44 12h15l52 -198l-39 -11q-36 78 -101 123.5t-145 45.5q-58 0 -92.5 -27.5t-34.5 -68.5q0 -36 24.5 -58.5t59.5 -35t103 -31.5q82 -23 132.5 -45
t86 -65.5t35.5 -115.5q0 -69 -38 -121.5t-104 -81.5t-148 -29q-30 0 -54 4.5z" />
    <glyph glyph-name="sacute" unicode="&#x15b;" horiz-adv-x="544" 
d="M268 717q13 18 26.5 26.5t33.5 8.5q19 0 31.5 -12.5t12.5 -29.5q0 -33 -36 -56l-130 -89l-34 28zM248.5 -14q-22.5 5 -58.5 15q-49 15 -69 15q-26 0 -45 -16h-11l-44 183l30 9q47 -74 111 -112.5t130 -38.5q41 0 68 18.5t27 53.5q0 38 -40.5 62.5t-111.5 45.5
q-189 52 -189 162q0 46 27.5 82t74.5 56t103 20q30 0 53.5 -5.5t50.5 -15.5q14 -5 28.5 -9t26.5 -4q15 0 26 5t16 10h12l35 -160l-36 -12q-37 65 -89 99.5t-104 34.5q-39 0 -61 -17.5t-22 -43.5q0 -35 35.5 -55t105.5 -40q60 -18 100.5 -36.5t67.5 -50t27 -80.5
q0 -85 -63.5 -132.5t-162.5 -47.5q-26 0 -48.5 5z" />
    <glyph glyph-name="Scircumflex" unicode="&#x15c;" horiz-adv-x="675" 
d="M338 911l161 -137l-23 -36l-138 62l-138 -62l-24 36zM296 -14.5q-24 4.5 -59 14.5q-54 15 -86 15q-29 0 -54 -15h-13l-56 220l40 15q43 -88 115.5 -142t160.5 -54q63 0 105.5 32.5t42.5 83.5q0 41 -26 67t-63.5 40.5t-104.5 34.5q-78 24 -126 45.5t-82 64t-34 110.5
q0 62 34.5 107.5t92.5 70t127 24.5q36 0 61.5 -4.5t66.5 -14.5q39 -12 62 -12q25 0 44 12h15l52 -198l-39 -11q-36 78 -101 123.5t-145 45.5q-58 0 -92.5 -27.5t-34.5 -68.5q0 -36 24.5 -58.5t59.5 -35t103 -31.5q82 -23 132.5 -45t86 -65.5t35.5 -115.5q0 -69 -38 -121.5
t-104 -81.5t-148 -29q-30 0 -54 4.5z" />
    <glyph glyph-name="scircumflex" unicode="&#x15d;" horiz-adv-x="544" 
d="M272 733l161 -137l-22 -36l-139 62l-138 -62l-23 36zM248.5 -14q-22.5 5 -58.5 15q-49 15 -69 15q-26 0 -45 -16h-11l-44 183l30 9q47 -74 111 -112.5t130 -38.5q41 0 68 18.5t27 53.5q0 38 -40.5 62.5t-111.5 45.5q-189 52 -189 162q0 46 27.5 82t74.5 56t103 20
q30 0 53.5 -5.5t50.5 -15.5q14 -5 28.5 -9t26.5 -4q15 0 26 5t16 10h12l35 -160l-36 -12q-37 65 -89 99.5t-104 34.5q-39 0 -61 -17.5t-22 -43.5q0 -35 35.5 -55t105.5 -40q60 -18 100.5 -36.5t67.5 -50t27 -80.5q0 -85 -63.5 -132.5t-162.5 -47.5q-26 0 -48.5 5z" />
    <glyph glyph-name="Scedilla" unicode="&#x15e;" horiz-adv-x="675" 
d="M607 98.5q-33 -50.5 -91 -80.5t-132 -36l-20 -46q10 5 27 5q36 0 58.5 -18t22.5 -50q0 -27 -18.5 -51.5t-52 -39.5t-77.5 -15q-52 0 -86.5 21t-34.5 49q0 15 10 26t25 11q17 0 25.5 -7.5t16.5 -22.5q9 -17 19 -26t33 -9q26 0 41.5 13t15.5 36q0 14 -10.5 23t-26.5 9
q-23 0 -36 -12l-31 14l38 90q-40 4 -86 18q-54 15 -86 15q-29 0 -54 -15h-13l-56 220l40 15q43 -88 115.5 -142t160.5 -54q63 0 105.5 32.5t42.5 83.5q0 41 -26 67t-63.5 40.5t-104.5 34.5q-78 24 -126 45.5t-82 64t-34 110.5q0 62 34.5 107.5t92.5 70t127 24.5
q36 0 61.5 -4.5t66.5 -14.5q39 -12 62 -12q25 0 44 12h15l52 -198l-39 -11q-36 78 -101 123.5t-145 45.5q-58 0 -92.5 -27.5t-34.5 -68.5q0 -36 24.5 -58.5t59.5 -35t103 -31.5q82 -23 132.5 -45t86 -65.5t35.5 -115.5q0 -64 -33 -114.5z" />
    <glyph glyph-name="scedilla" unicode="&#x15f;" horiz-adv-x="544" 
d="M466.5 34.5q-56.5 -47.5 -147.5 -52.5l-21 -46q10 5 27 5q37 0 59.5 -18t22.5 -50q0 -27 -18.5 -51.5t-52.5 -39.5t-78 -15q-52 0 -86 20.5t-34 49.5q0 15 10 26t25 11q17 0 25.5 -7.5t16.5 -22.5q8 -17 18.5 -26t32.5 -9q27 0 42.5 13t15.5 36q0 14 -10.5 23t-26.5 9
q-23 0 -36 -12l-31 14l39 92q-20 3 -68 17q-45 14 -70 15q-26 0 -45 -16h-11l-44 183l30 9q47 -74 111 -112.5t130 -38.5q41 0 68 18.5t27 53.5q0 38 -40.5 62.5t-111.5 45.5q-189 52 -189 162q0 46 27.5 82t74.5 56t103 20q30 0 53.5 -5.5t50.5 -15.5q14 -5 28.5 -9
t26.5 -4q15 0 26 5t16 10h12l35 -160l-36 -12q-37 65 -89 99.5t-104 34.5q-39 0 -61 -17.5t-22 -43.5q0 -35 35.5 -55t105.5 -40q60 -18 100.5 -36.5t67.5 -50t27 -80.5q0 -79 -56.5 -126.5z" />
    <glyph glyph-name="Scaron" unicode="&#x160;" horiz-adv-x="675" 
d="M199 915l139 -62l138 62l23 -36l-161 -137l-162 137zM296 -14.5q-24 4.5 -59 14.5q-54 15 -86 15q-29 0 -54 -15h-13l-56 220l40 15q43 -88 115.5 -142t160.5 -54q63 0 105.5 32.5t42.5 83.5q0 41 -26 67t-63.5 40.5t-104.5 34.5q-78 24 -126 45.5t-82 64t-34 110.5
q0 62 34.5 107.5t92.5 70t127 24.5q36 0 61.5 -4.5t66.5 -14.5q39 -12 62 -12q25 0 44 12h15l52 -198l-39 -11q-36 78 -101 123.5t-145 45.5q-58 0 -92.5 -27.5t-34.5 -68.5q0 -36 24.5 -58.5t59.5 -35t103 -31.5q82 -23 132.5 -45t86 -65.5t35.5 -115.5q0 -69 -38 -121.5
t-104 -81.5t-148 -29q-30 0 -54 4.5z" />
    <glyph glyph-name="scaron" unicode="&#x161;" horiz-adv-x="544" 
d="M133 737l139 -62l138 62l23 -36l-161 -137l-161 137zM248.5 -14q-22.5 5 -58.5 15q-49 15 -69 15q-26 0 -45 -16h-11l-44 183l30 9q47 -74 111 -112.5t130 -38.5q41 0 68 18.5t27 53.5q0 38 -40.5 62.5t-111.5 45.5q-189 52 -189 162q0 46 27.5 82t74.5 56t103 20
q30 0 53.5 -5.5t50.5 -15.5q14 -5 28.5 -9t26.5 -4q15 0 26 5t16 10h12l35 -160l-36 -12q-37 65 -89 99.5t-104 34.5q-39 0 -61 -17.5t-22 -43.5q0 -35 35.5 -55t105.5 -40q60 -18 100.5 -36.5t67.5 -50t27 -80.5q0 -85 -63.5 -132.5t-162.5 -47.5q-26 0 -48.5 5z" />
    <glyph glyph-name="uni0162" unicode="&#x162;" horiz-adv-x="700" 
d="M654 505q-31 53 -89 91t-136 40v-524q0 -32 14.5 -52t36.5 -26l-6 -34h-88l-29 -64q13 5 27 5q37 0 59.5 -18t22.5 -50q0 -27 -18.5 -51.5t-52.5 -39.5t-78 -15q-52 0 -86 20.5t-34 49.5q0 15 10 26t25 11q17 0 25.5 -7.5t16.5 -23.5q10 -17 19.5 -25.5t31.5 -8.5
q27 0 42.5 13t15.5 36q0 14 -10.5 23t-26.5 9q-23 0 -36 -12l-31 14l46 108h-96l-6 34q22 6 36 26t14 52v524q-78 -2 -136.5 -40t-89.5 -91l-36 17l58 196h12q15 -8 55.5 -13t77.5 -5h273q37 0 77.5 5t56.5 13h12l57 -196z" />
    <glyph glyph-name="uni0163" unicode="&#x163;" horiz-adv-x="388" 
d="M238 123q0 -74 59 -74q14 0 31.5 3.5t29.5 8.5l13 -56q-16 -7 -43 -13.5t-54 -9.5l-20 -46q10 5 27 5q36 0 58.5 -18t22.5 -50q0 -27 -18.5 -51.5t-52 -39.5t-77.5 -15q-52 0 -86.5 21t-34.5 49q0 15 10 26t25 11q17 0 25.5 -7.5t16.5 -22.5q9 -17 19 -26t33 -9
q26 0 41.5 13t15.5 36q0 14 -10.5 23t-26.5 9q-23 0 -36 -12l-31 14l39 91q-54 8 -82.5 42.5t-28.5 100.5v329h-89v45q68 22 112 63t70 107h42v-147h135v-68h-135v-332z" />
    <glyph glyph-name="Tcaron" unicode="&#x164;" horiz-adv-x="701" 
d="M189 879l22 36l139 -62l138 62l23 -36l-161 -137zM654 505q-31 53 -89 91t-136 40v-524q0 -32 14.5 -52t36.5 -26l-6 -34h-245l-6 34q22 6 36 26t14 52v524q-78 -2 -136.5 -40t-89.5 -91l-36 17l58 196h12q15 -8 55.5 -13t77.5 -5h273q37 0 77.5 5t56.5 13h12l57 -196z
" />
    <glyph glyph-name="tcaron" unicode="&#x165;" horiz-adv-x="633" 
d="M574.5 687.5q27.5 -31.5 27.5 -83.5q0 -71 -42 -140t-109 -108l-35 45q40 27 66.5 66t37.5 87l-2 3q-14 -7 -26 -7q-36 0 -61.5 24t-25.5 61t28.5 60.5t69.5 23.5q44 0 71.5 -31.5zM378 522v-68h-135v-331q0 -74 59 -74q14 0 31 3.5t29 8.5l14 -56q-22 -9 -57.5 -16.5
t-63.5 -7.5q-72 0 -110 34t-38 111v328h-88v46q68 22 112 63t70 107h42v-148h135z" />
    <glyph glyph-name="Tbar" unicode="&#x166;" horiz-adv-x="701" 
d="M654 505q-31 53 -89 90.5t-136 39.5v-247h125l1 -51h-126v-225q0 -32 14 -52.5t37 -26.5l-6 -33h-245l-6 33q22 6 36.5 26.5t14.5 52.5v225h-126v50h126v248q-79 -2 -137.5 -39.5t-89.5 -90.5l-36 17l58 197h12q15 -8 56 -13.5t77 -5.5h274q35 0 76 5.5t57 13.5h11
l58 -197z" />
    <glyph glyph-name="tbar" unicode="&#x167;" horiz-adv-x="395" 
d="M238 297h132l1 -50h-133v-124q0 -39 15 -56.5t44 -17.5q14 0 31.5 3t29.5 8l13 -56q-21 -9 -57.5 -16t-63.5 -7q-72 0 -109.5 34t-37.5 110v122h-89v50h89v158h-89v45q68 22 112 63t70 107h42v-147h135v-68h-135v-158z" />
    <glyph glyph-name="Utilde" unicode="&#x168;" horiz-adv-x="660" 
d="M353.5 795.5q-17.5 7.5 -39.5 21.5q-18 11 -30.5 17t-24.5 6q-14 0 -25 -9.5t-15 -29.5l-45 12q6 56 32 81t62 25q20 0 36.5 -7.5t40.5 -21.5q22 -12 33 -17t23 -5q14 0 25.5 9t15.5 29l43 -11q-6 -56 -32 -81.5t-62 -25.5q-20 0 -37.5 7.5zM179 10.5q-69 29.5 -109 87.5
t-40 141q0 20 1 30l28 319q3 32 -9 52t-34 26l6 34h247l6 -34q-24 -6 -39.5 -26t-18.5 -52l-28 -318q-1 -9 -1 -26q0 -59 24 -103.5t66 -69t94 -24.5q86 0 138 53.5t52 143.5q0 17 -1 26l-27 316q-3 32 -19.5 53.5t-40.5 26.5l6 34h158l6 -34q-23 -6 -35 -27t-10 -53
l28 -317q1 -9 1 -27q0 -79 -38 -138t-105 -91t-152 -32t-154 29.5z" />
    <glyph glyph-name="utilde" unicode="&#x169;" horiz-adv-x="625" 
d="M216.5 652.5q-11.5 -9.5 -15.5 -29.5l-45 12q7 56 33 81t61 25q20 0 37.5 -7.5t40.5 -21.5q22 -12 33 -17t23 -5q14 0 25 9t16 29l43 -11q-6 -56 -32.5 -81.5t-61.5 -25.5q-20 0 -37.5 7.5t-39.5 21.5q-18 11 -30.5 17t-24.5 6q-14 0 -25.5 -9.5zM567.5 60
q14.5 -20 36.5 -26l-6 -35q-87 -4 -140 -18h-12l-17 93h-7q-60 -93 -172 -93q-84 0 -135 54t-51 161v164q0 32 -14 52t-36 26l6 34q89 14 166 69h13v-354q0 -59 29.5 -91t78.5 -32q46 0 79 33t33 81v182q0 32 -14 52.5t-36 25.5l6 34q93 16 165 69h13v-429q0 -32 14.5 -52z
" />
    <glyph glyph-name="Umacron" unicode="&#x16a;" horiz-adv-x="660" 
d="M476 866v-69h-293v69h293zM179 10.5q-69 29.5 -109 87.5t-40 141q0 20 1 30l28 319q3 32 -9 52t-34 26l6 34h247l6 -34q-24 -6 -39.5 -26t-18.5 -52l-28 -318q-1 -9 -1 -26q0 -59 24 -103.5t66 -69t94 -24.5q86 0 138 53.5t52 143.5q0 17 -1 26l-27 316q-3 32 -19.5 53.5
t-40.5 26.5l6 34h158l6 -34q-23 -6 -35 -27t-10 -53l28 -317q1 -9 1 -27q0 -79 -38 -138t-105 -91t-152 -32t-154 29.5z" />
    <glyph glyph-name="umacron" unicode="&#x16b;" horiz-adv-x="625" 
d="M165 619v69h294v-69h-294zM567.5 60q14.5 -20 36.5 -26l-6 -35q-87 -4 -140 -18h-12l-17 93h-7q-60 -93 -172 -93q-84 0 -135 54t-51 161v164q0 32 -14 52t-36 26l6 34q89 14 166 69h13v-354q0 -59 29.5 -91t78.5 -32q46 0 79 33t33 81v182q0 32 -14 52.5t-36 25.5l6 34
q93 16 165 69h13v-429q0 -32 14.5 -52z" />
    <glyph glyph-name="Ubreve" unicode="&#x16c;" horiz-adv-x="660" 
d="M233.5 801.5q-38.5 28.5 -54.5 72.5l45 24q10 -24 39.5 -39.5t65.5 -15.5t66 15.5t40 38.5l44 -23q-16 -44 -54 -72.5t-96 -28.5q-57 0 -95.5 28.5zM179 10.5q-69 29.5 -109 87.5t-40 141q0 20 1 30l28 319q3 32 -9 52t-34 26l6 34h247l6 -34q-24 -6 -39.5 -26t-18.5 -52
l-28 -318q-1 -9 -1 -26q0 -59 24 -103.5t66 -69t94 -24.5q86 0 138 53.5t52 143.5q0 17 -1 26l-27 316q-3 32 -19.5 53.5t-40.5 26.5l6 34h158l6 -34q-23 -6 -35 -27t-10 -53l28 -317q1 -9 1 -27q0 -79 -38 -138t-105 -91t-152 -32t-154 29.5z" />
    <glyph glyph-name="ubreve" unicode="&#x16d;" horiz-adv-x="625" 
d="M216 623.5q-39 28.5 -54 72.5l45 24q10 -24 39.5 -39.5t65.5 -15.5t66 15.5t40 38.5l44 -23q-16 -44 -54 -72.5t-96 -28.5q-57 0 -96 28.5zM567.5 60q14.5 -20 36.5 -26l-6 -35q-87 -4 -140 -18h-12l-17 93h-7q-60 -93 -172 -93q-84 0 -135 54t-51 161v164q0 32 -14 52
t-36 26l6 34q89 14 166 69h13v-354q0 -59 29.5 -91t78.5 -32q46 0 79 33t33 81v182q0 32 -14 52.5t-36 25.5l6 34q93 16 165 69h13v-429q0 -32 14.5 -52z" />
    <glyph glyph-name="Uring" unicode="&#x16e;" horiz-adv-x="660" 
d="M253.5 781q-31.5 31 -31.5 75t31.5 75t76.5 31q44 0 75 -31t31 -75q0 -43 -31 -74.5t-75 -31.5q-45 0 -76.5 31zM365.5 819.5q14.5 14.5 14.5 36.5q0 21 -14.5 35.5t-35.5 14.5q-22 0 -36 -14.5t-14 -35.5q0 -22 14 -36.5t36 -14.5q21 0 35.5 14.5zM179 10.5
q-69 29.5 -109 87.5t-40 141q0 20 1 30l28 319q3 32 -9 52t-34 26l6 34h247l6 -34q-24 -6 -39.5 -26t-18.5 -52l-28 -318q-1 -9 -1 -26q0 -59 24 -103.5t66 -69t94 -24.5q86 0 138 53.5t52 143.5q0 17 -1 26l-27 316q-3 32 -19.5 53.5t-40.5 26.5l6 34h158l6 -34
q-23 -6 -35 -27t-10 -53l28 -317q1 -9 1 -27q0 -79 -38 -138t-105 -91t-152 -32t-154 29.5z" />
    <glyph glyph-name="uring" unicode="&#x16f;" horiz-adv-x="625" 
d="M236.5 603q-31.5 31 -31.5 75t31.5 75t75.5 31t75.5 -31t31.5 -75t-31.5 -75t-75.5 -31t-75.5 31zM277 713.5q-14 -14.5 -14 -35.5q0 -22 14 -36.5t35 -14.5t36 14.5t15 36.5q0 21 -15 35.5t-36 14.5t-35 -14.5zM567.5 60q14.5 -20 36.5 -26l-6 -35q-87 -4 -140 -18h-12
l-17 93h-7q-60 -93 -172 -93q-84 0 -135 54t-51 161v164q0 32 -14 52t-36 26l6 34q89 14 166 69h13v-354q0 -59 29.5 -91t78.5 -32q46 0 79 33t33 81v182q0 32 -14 52.5t-36 25.5l6 34q93 16 165 69h13v-429q0 -32 14.5 -52z" />
    <glyph glyph-name="Uhungarumlaut" unicode="&#x170;" horiz-adv-x="660" 
d="M304 891q8 23 20.5 34t35.5 11q20 0 31.5 -13t11.5 -30q0 -13 -5.5 -23t-15.5 -25l-81 -107l-46 19zM447 891q8 23 20.5 34t34.5 11q21 0 32.5 -13t11.5 -30q0 -12 -5.5 -22t-16.5 -26l-81 -107l-46 19zM179 10.5q-69 29.5 -109 87.5t-40 141q0 20 1 30l28 319
q3 32 -9 52t-34 26l6 34h247l6 -34q-24 -6 -39.5 -26t-18.5 -52l-28 -318q-1 -9 -1 -26q0 -59 24 -103.5t66 -69t94 -24.5q86 0 138 53.5t52 143.5q0 17 -1 26l-27 316q-3 32 -19.5 53.5t-40.5 26.5l6 34h158l6 -34q-23 -6 -35 -27t-10 -53l28 -317q1 -9 1 -27
q0 -79 -38 -138t-105 -91t-152 -32t-154 29.5z" />
    <glyph glyph-name="uhungarumlaut" unicode="&#x171;" horiz-adv-x="625" 
d="M228 579l49 134q8 23 21 34t35 11q20 0 31.5 -13t11.5 -30q0 -13 -5.5 -23t-15.5 -25l-81 -107zM420 713q8 23 20.5 34t35.5 11q20 0 31.5 -13t11.5 -30q0 -13 -5.5 -23t-15.5 -25l-81 -107l-46 19zM567.5 60q14.5 -20 36.5 -26l-6 -35q-87 -4 -140 -18h-12l-17 93h-7
q-60 -93 -172 -93q-84 0 -135 54t-51 161v164q0 32 -14 52t-36 26l6 34q89 14 166 69h13v-354q0 -59 29.5 -91t78.5 -32q46 0 79 33t33 81v182q0 32 -14 52.5t-36 25.5l6 34q93 16 165 69h13v-429q0 -32 14.5 -52z" />
    <glyph glyph-name="Uogonek" unicode="&#x172;" horiz-adv-x="660" 
d="M628 241q0 -106 -67 -174.5t-178 -82.5q-21 -18 -32.5 -40t-11.5 -45q0 -24 16 -40t39 -16q40 0 64 42l41 -22q-23 -41 -54.5 -60.5t-77.5 -19.5q-54 0 -87 29t-33 74q0 53 42 97q-115 11 -187 77t-72 178q0 20 1 31l28 319q3 32 -9 52t-34 26l6 34h247l6 -34
q-24 -6 -39.5 -26t-18.5 -52l-28 -318q-1 -9 -1 -26q0 -59 24 -103.5t66 -69t94 -24.5q86 0 138 53.5t52 143.5q0 17 -1 26l-27 316q-3 32 -19.5 53.5t-40.5 26.5l6 34h158l6 -34q-23 -6 -35 -27t-10 -53l28 -317q1 -10 1 -28z" />
    <glyph glyph-name="uogonek" unicode="&#x173;" horiz-adv-x="625" 
d="M571 -197.5q-31 -19.5 -77 -19.5q-54 0 -87 29t-33 74q0 35 17.5 65t50.5 53l-13 70h-7q-60 -93 -172 -93q-84 0 -135 54t-51 161v164q0 32 -14 52t-36 26l6 34q89 14 166 69h13v-354q0 -59 29.5 -91t78.5 -32q46 0 79 33t33 81v182q0 32 -14 52.5t-36 25.5l6 34
q93 16 165 69h13v-429q0 -32 14.5 -52t36.5 -26l-6 -35q-39 -1 -78 -7q-25 -18 -39.5 -42.5t-14.5 -50.5q0 -24 16 -40t38 -16q41 0 65 42l41 -22q-24 -41 -55 -60.5z" />
    <glyph glyph-name="Wcircumflex" unicode="&#x174;" horiz-adv-x="1012" 
d="M344 774l162 137l161 -137l-23 -36l-138 62l-138 -62zM978 640.5q-20 -19.5 -29 -52.5l-163 -543q16 -21 21 -25l-6 -19q-58 0 -103 -6.5t-62 -12.5h-14l-115 426h-7l-113 -360q5 -9 23 -29l-6 -19q-36 1 -80 -3t-85 -15h-8l-170 606q-9 33 -28 52.5t-42 25.5l8 34h254
l5 -34q-15 -4 -24.5 -17t-9.5 -33q0 -15 4 -28l122 -434h5l119 376l-9 35q-2 6 -8 28.5t-17.5 40t-30.5 33.5l10 34q43 -1 88.5 3.5t77.5 16.5h7l154 -567h6l131 434q5 18 5 30q0 19 -9 31.5t-23 16.5l4 34h154l7 -34q-23 -6 -43 -25.5z" />
    <glyph glyph-name="wcircumflex" unicode="&#x175;" horiz-adv-x="780" 
d="M222 596l162 137l161 -137l-23 -36l-138 62l-139 -62zM746.5 516.5q21.5 -24.5 21.5 -62.5q0 -27 -11 -61.5t-32 -82.5l-132 -310h-110l-86 274h-4l-91 -274h-128l-101 356q-21 69 -78 79l6 34q40 6 82 24.5t71 47.5h12l112 -394h5l123 375h63l119 -375h5l79 192
q9 23 9 33q0 11 -7 18.5t-20 17.5q-21 14 -31.5 28t-10.5 39q0 30 20 48t54 18q39 0 60.5 -24.5z" />
    <glyph glyph-name="Ycircumflex" unicode="&#x176;" horiz-adv-x="654" 
d="M327 911l161 -137l-23 -36l-138 62l-139 -62l-23 36zM234 60q14 20 14 52v217l-167 259q-42 68 -90 78l5 34h271l6 -34q-12 -3 -19.5 -12t-7.5 -23q0 -20 15 -43l115 -174h7l114 174q16 25 16 43q0 14 -7.5 23t-19.5 12l6 34h165l6 -34q-25 -5 -47 -24.5t-43 -53.5
l-169 -260v-216q0 -32 14 -52t37 -26l-6 -34h-246l-5 34q22 6 36 26z" />
    <glyph glyph-name="ycircumflex" unicode="&#x177;" horiz-adv-x="528" 
d="M103 596l161 137l161 -137l-22 -36l-139 62l-138 -62zM500.5 515q22.5 -26 22.5 -64q0 -74 -57 -210q-35 -97 -72.5 -172t-91.5 -147q-52 -76 -96 -111t-97 -35q-38 0 -64.5 22t-26.5 56q0 32 20.5 51.5t51.5 19.5q21 0 34 -8.5t25 -22.5q14 -16 24 -16q17 0 36 19t45 62
l27 41h-30l-156 356q-15 35 -42.5 54.5t-57.5 24.5l6 34q40 6 82.5 25t65.5 47h14l182 -411h7q30 62 51 131q20 49 26.5 72t5.5 41q-1 12 -7.5 19t-22.5 19q-20 14 -30.5 27t-10.5 36q0 30 21.5 48t54.5 18q38 0 60.5 -26z" />
    <glyph glyph-name="Ydieresis" unicode="&#x178;" horiz-adv-x="654" 
d="M176.5 795q-19.5 20 -19.5 46q0 28 19.5 48.5t51.5 20.5t52 -20.5t20 -48.5q0 -26 -20 -46t-52 -20t-51.5 20zM372.5 795q-19.5 20 -19.5 46q0 28 19.5 48.5t51.5 20.5t51.5 -20.5t19.5 -48.5q0 -26 -19.5 -46t-51.5 -20t-51.5 20zM234 60q14 20 14 52v217l-167 259
q-42 68 -90 78l5 34h271l6 -34q-12 -3 -19.5 -12t-7.5 -23q0 -20 15 -43l115 -174h7l114 174q16 25 16 43q0 14 -7.5 23t-19.5 12l6 34h165l6 -34q-25 -5 -47 -24.5t-43 -53.5l-169 -260v-216q0 -32 14 -52t37 -26l-6 -34h-246l-5 34q22 6 36 26z" />
    <glyph glyph-name="Zacute" unicode="&#x179;" horiz-adv-x="655" 
d="M353 895q13 18 26.5 26.5t33.5 8.5q19 0 31.5 -12.5t12.5 -29.5q0 -33 -36 -56l-130 -89l-34 28zM504 -5.5q-41 5.5 -77 5.5h-394l-6 37l392 599h-106q-81 0 -143 -41t-96 -100l-36 17l62 207h13q15 -8 56 -13.5t76 -5.5h365l6 -37l-393 -599h137q81 0 144.5 46
t100.5 113l36 -16l-69 -226h-12q-15 8 -56 13.5z" />
    <glyph glyph-name="zacute" unicode="&#x17a;" horiz-adv-x="541" 
d="M313 717q15 18 28 26.5t32 8.5t32 -12.5t13 -29.5q0 -19 -10 -32t-27 -24l-129 -89l-35 28zM396 -5.5q-41 5.5 -77 5.5h-293l-6 41l303 420v6h-79q-61 0 -100 -24t-66 -79l-31 13l34 145h416l6 -40l-301 -416v-6h92q70 0 123.5 40t83.5 98l31 -15l-67 -202h-13
q-15 8 -56 13.5z" />
    <glyph glyph-name="Zdotaccent" unicode="&#x17b;" horiz-adv-x="655" 
d="M275.5 808q-19.5 20 -19.5 46q0 28 19.5 48.5t51.5 20.5t51.5 -20.5t19.5 -48.5q0 -26 -19.5 -46t-51.5 -20t-51.5 20zM504 -5.5q-41 5.5 -77 5.5h-394l-6 37l392 599h-106q-81 0 -143 -41t-96 -100l-36 17l62 207h13q15 -8 56 -13.5t76 -5.5h365l6 -37l-393 -599h137
q81 0 144.5 46t100.5 113l36 -16l-69 -226h-12q-15 8 -56 13.5z" />
    <glyph glyph-name="zdotaccent" unicode="&#x17c;" horiz-adv-x="541" 
d="M218.5 630q-19.5 20 -19.5 46q0 28 19.5 48.5t51.5 20.5t51.5 -20.5t19.5 -48.5q0 -26 -19.5 -46t-51.5 -20t-51.5 20zM396 -5.5q-41 5.5 -77 5.5h-293l-6 41l303 420v6h-79q-61 0 -100 -24t-66 -79l-31 13l34 145h416l6 -40l-301 -416v-6h92q70 0 123.5 40t83.5 98
l31 -15l-67 -202h-13q-15 8 -56 13.5z" />
    <glyph glyph-name="Zcaron" unicode="&#x17d;" horiz-adv-x="655" 
d="M188 915l139 -62l138 62l23 -36l-161 -137l-161 137zM504 -5.5q-41 5.5 -77 5.5h-394l-6 37l392 599h-106q-81 0 -143 -41t-96 -100l-36 17l62 207h13q15 -8 56 -13.5t76 -5.5h365l6 -37l-393 -599h137q81 0 144.5 46t100.5 113l36 -16l-69 -226h-12q-15 8 -56 13.5z" />
    <glyph glyph-name="zcaron" unicode="&#x17e;" horiz-adv-x="541" 
d="M132 737l139 -62l137 62l24 -36l-161 -137l-162 137zM396 -5.5q-41 5.5 -77 5.5h-293l-6 41l303 420v6h-79q-61 0 -100 -24t-66 -79l-31 13l34 145h416l6 -40l-301 -416v-6h92q70 0 123.5 40t83.5 98l31 -15l-67 -202h-13q-15 8 -56 13.5z" />
    <glyph glyph-name="longs" unicode="&#x17f;" horiz-adv-x="352" 
d="M356 754q41 -32 41 -79q0 -27 -14.5 -44.5t-41.5 -17.5q-29 0 -41 14t-21 42q-8 25 -16.5 36.5t-29.5 11.5q-19 0 -30 -13.5t-11 -36.5q0 -16 7.5 -35.5t21.5 -46.5q16 -31 24 -53t8 -41v-380q0 -32 14 -52.5t37 -25.5l-6 -33h-224l-6 33q23 5 37 25.5t14 52.5v344h-98
v67h96q-3 22 -11 45q-5 17 -8.5 35.5t-3.5 35.5q0 40 19.5 74t56 54t86.5 20q59 0 100 -32z" />
    <glyph glyph-name="florin" unicode="&#x192;" horiz-adv-x="464" 
d="M439.5 701q34.5 -18 34.5 -50q0 -24 -14.5 -37.5t-37.5 -13.5q-24 0 -35 8t-20 24q-7 11 -13 16t-17 5q-19 0 -31.5 -22t-18.5 -83l-10 -84h120v-72h-129l-31 -251q-12 -135 -57.5 -199t-148.5 -64q-60 0 -96.5 21t-36.5 52q0 22 13.5 35.5t38.5 13.5q22 0 32.5 -8.5
t18.5 -24.5q9 -13 15 -18.5t18 -5.5q22 0 35.5 24t19.5 86l42 339h-107v72h116l7 56q10 101 62 150t140 49q56 0 90.5 -18z" />
    <glyph glyph-name="Aringacute" unicode="&#x1fa;" horiz-adv-x="683" 
d="M265.5 781q-31.5 31 -31.5 75q0 33 19 60t49 39l84 108q14 17 27.5 26t32.5 9t31.5 -12.5t12.5 -29.5q0 -19 -9.5 -32t-26.5 -25l-68 -47q28 -13 45 -39t17 -57q0 -44 -31.5 -75t-75.5 -31t-75.5 31zM377 819.5q15 14.5 15 36.5q0 21 -15 35.5t-36 14.5t-35 -14.5
t-14 -35.5q0 -22 14 -36.5t35 -14.5t36 14.5zM646.5 59.5q21.5 -19.5 45.5 -25.5l-6 -34h-253l-6 34q27 8 27 40q0 18 -8 37l-25 65h-259l-25 -65q-8 -19 -8 -37q0 -31 28 -40l-6 -34h-154l-6 34q24 6 46 25.5t34 51.5l186 477q-20 28 -57 53l4 34q43 3 87 14t73 31h8
l240 -609q13 -32 34.5 -51.5zM293 505h-4l-100 -258h204z" />
    <glyph glyph-name="aringacute" unicode="&#x1fb;" horiz-adv-x="565" 
d="M208.5 603q-31.5 31 -31.5 75q0 32 18 58.5t46 38.5l77 101q15 17 28 25.5t32 8.5t32 -12.5t13 -29.5q0 -19 -10 -32t-27 -24l-56 -38q28 -14 44.5 -39.5t16.5 -56.5q0 -44 -31.5 -75t-75.5 -31t-75.5 31zM319.5 641.5q14.5 14.5 14.5 36.5q0 21 -14.5 35.5t-35.5 14.5
t-35.5 -14.5t-14.5 -35.5q0 -22 14.5 -36.5t35.5 -14.5t35.5 14.5zM540 -9.5q-29 -9.5 -56 -9.5q-41 0 -73.5 20t-44.5 67h-5q-25 -45 -70.5 -66t-94.5 -21q-74 0 -123 39t-49 105q0 63 42 103t106 61.5t157 38.5l-10 71q-4 36 -24.5 57t-49.5 21t-48 -17t-16 -43
q1 -5 1 -14q0 -26 -18.5 -42t-44.5 -16q-30 0 -47 18t-17 50q1 32 23.5 61t67.5 48t109 19q83 0 141.5 -47t69.5 -140l27 -232q5 -38 18.5 -59t34.5 -21q12 0 30 8l12 -30q-19 -20 -48 -29.5zM303 75.5q23 15.5 36 41t12 53.5l-16 114q-79 -16 -125.5 -48.5t-46.5 -86.5
q0 -41 25.5 -65t65.5 -24q26 0 49 15.5z" />
    <glyph glyph-name="uni0218" unicode="&#x218;" horiz-adv-x="666" 
d="M518.5 394q50.5 -22 86 -65.5t35.5 -115.5q0 -69 -38 -121.5t-104 -81.5t-148 -29q-30 0 -54 4.5t-59 14.5q-54 15 -86 15q-29 0 -54 -15h-13l-56 220l40 15q43 -88 115.5 -142t160.5 -54q63 0 105.5 32.5t42.5 83.5q0 41 -26 67t-63.5 40.5t-104.5 34.5
q-78 24 -126 45.5t-82 64t-34 110.5q0 62 34.5 107.5t92.5 70t127 24.5q36 0 61.5 -4.5t66.5 -14.5q39 -12 62 -12q25 0 44 12h15l52 -198l-39 -11q-36 78 -101 123.5t-145 45.5q-58 0 -92.5 -27.5t-34.5 -68.5q0 -36 24.5 -58.5t59.5 -35t103 -31.5q82 -23 132.5 -45z
M433.5 -88.5q27.5 -31.5 27.5 -83.5q0 -71 -42 -140t-109 -108l-35 45q40 27 66.5 66.5t37.5 87.5l-2 2q-14 -7 -27 -7q-35 0 -60.5 24t-25.5 61t28.5 60.5t69.5 23.5q44 0 71.5 -31.5z" />
    <glyph glyph-name="uni0219" unicode="&#x219;" horiz-adv-x="543" 
d="M428.5 291.5q40.5 -18.5 67.5 -50t27 -80.5q0 -85 -63.5 -132.5t-162.5 -47.5q-26 0 -48.5 5t-58.5 15q-49 15 -69 15q-26 0 -45 -16h-11l-44 183l30 9q47 -74 111 -112.5t130 -38.5q41 0 68 18.5t27 53.5q0 38 -40.5 62.5t-111.5 45.5q-189 52 -189 162q0 46 27.5 82
t74.5 56t103 20q30 0 53.5 -5.5t50.5 -15.5q14 -5 28.5 -9t26.5 -4q15 0 26 5t16 10h12l35 -160l-36 -12q-37 65 -89 99.5t-104 34.5q-39 0 -61 -17.5t-22 -43.5q0 -35 35.5 -55t105.5 -40q60 -18 100.5 -36.5zM358.5 -88.5q27.5 -31.5 27.5 -83.5q0 -71 -42 -140t-109 -108
l-35 45q40 27 66.5 66.5t37.5 87.5l-2 2q-14 -7 -26 -7q-36 0 -61.5 24t-25.5 61t28.5 60.5t69.5 23.5q44 0 71.5 -31.5z" />
    <glyph glyph-name="uni021A" unicode="&#x21a;" horiz-adv-x="701" 
d="M654 505q-31 53 -89 91t-136 40v-524q0 -32 14.5 -52t36.5 -26l-6 -34h-245l-6 34q22 6 36 26t14 52v524q-78 -2 -136.5 -40t-89.5 -91l-36 17l58 196h12q15 -8 55.5 -13t77.5 -5h273q37 0 77.5 5t56.5 13h12l57 -196zM421.5 -88.5q27.5 -31.5 27.5 -83.5q0 -71 -42 -140
t-109 -108l-35 45q40 27 66.5 66.5t37.5 87.5l-2 2q-14 -7 -27 -7q-35 0 -60.5 24t-25.5 61t28.5 60.5t69.5 23.5q44 0 71.5 -31.5z" />
    <glyph glyph-name="uni021B" unicode="&#x21b;" horiz-adv-x="394" 
d="M238 123q0 -74 59 -74q32 0 61 12l13 -56q-21 -9 -57 -16.5t-64 -7.5q-72 0 -109.5 34t-37.5 111v328h-89v46q68 22 112 63t70 107h42v-148h135v-68h-135v-331zM307.5 -88.5q27.5 -31.5 27.5 -83.5q0 -71 -42 -140t-109 -108l-35 45q40 27 66.5 66.5t37.5 87.5l-2 2
q-14 -7 -27 -7q-35 0 -60.5 24t-25.5 61t28.5 60.5t69.5 23.5q44 0 71.5 -31.5z" />
    <glyph glyph-name="uni0237" unicode="&#x237;" horiz-adv-x="241" 
d="M-76.5 -194q-38.5 30 -38.5 75q0 25 17 42.5t45 17.5q33 0 44 -16t16 -48q4 -26 11.5 -39t28.5 -13q20 0 31.5 21t11.5 50q0 28 -13 73q-8 31 -11.5 50t-3.5 43v299q0 32 -14 52t-36 26l6 33q87 13 165 69h13l1 -576q0 -88 -43 -138.5t-127 -50.5q-65 0 -103.5 30z" />
    <glyph glyph-name="uni02B0" unicode="&#x2b0;" horiz-adv-x="299" 
d="M268 444.5q7 -9.5 18 -12.5l-3 -16h-104l-4 16q10 3 15.5 12.5t3.5 24.5l-10 109q-2 22 -13 33.5t-26 11.5q-18 0 -31 -12t-13 -31v-111q0 -30 22 -37l-3 -16h-104l-3 16q22 7 22 37v205q0 29 -22 36l3 16q47 7 86 33l5 -2q-6 -25 -6 -75v-54h3q9 12 24.5 20t34.5 8
q38 0 61.5 -24t27.5 -71l8 -92q1 -15 8 -24.5z" />
    <glyph glyph-name="circumflex" unicode="&#x2c6;" horiz-adv-x="469" 
d="M235 733l161 -137l-23 -36l-138 62l-139 -62l-23 36z" />
    <glyph glyph-name="caron" unicode="&#x2c7;" horiz-adv-x="469" 
d="M96 737l139 -62l138 62l23 -36l-161 -137l-162 137z" />
    <glyph glyph-name="uni02C9" unicode="&#x2c9;" horiz-adv-x="458" 
d="M376 688v-69h-294v69h294z" />
    <glyph glyph-name="breve" unicode="&#x2d8;" horiz-adv-x="453" 
d="M130.5 623.5q-38.5 28.5 -54.5 72.5l45 24q10 -24 39.5 -39.5t65.5 -15.5t66 15.5t40 38.5l44 -23q-16 -44 -54 -72.5t-96 -28.5q-57 0 -95.5 28.5z" />
    <glyph glyph-name="dotaccent" unicode="&#x2d9;" horiz-adv-x="387" 
d="M141.5 630q-19.5 20 -19.5 46q0 28 19.5 48.5t51.5 20.5q33 0 52.5 -20.5t19.5 -48.5q0 -26 -19.5 -46t-52.5 -20q-32 0 -51.5 20z" />
    <glyph glyph-name="ring" unicode="&#x2da;" horiz-adv-x="436" 
d="M142.5 603q-31.5 31 -31.5 75t31.5 75t75.5 31t75.5 -31t31.5 -75t-31.5 -75t-75.5 -31t-75.5 31zM253.5 641.5q14.5 14.5 14.5 36.5q0 21 -14.5 35.5t-35.5 14.5t-35.5 -14.5t-14.5 -35.5q0 -22 14.5 -36.5t35.5 -14.5t35.5 14.5z" />
    <glyph glyph-name="ogonek" unicode="&#x2db;" horiz-adv-x="450" 
d="M179 -188q-33 29 -33 74q0 47 32 85.5t87 60.5l38 -32q-30 -19 -47.5 -45.5t-17.5 -55.5q0 -24 16 -40t39 -16q40 0 64 42l41 -22q-23 -41 -54.5 -60.5t-77.5 -19.5q-54 0 -87 29z" />
    <glyph glyph-name="tilde" unicode="&#x2dc;" horiz-adv-x="464" 
d="M256.5 617.5q-17.5 7.5 -39.5 21.5q-18 12 -30.5 17.5t-25.5 5.5t-24.5 -9.5t-15.5 -29.5l-45 12q6 55 32.5 80.5t61.5 25.5q20 0 36.5 -7t41.5 -21q18 -12 30.5 -17.5t25.5 -5.5q14 0 25 9t16 29l43 -11q-7 -56 -33 -81.5t-61 -25.5q-20 0 -37.5 7.5z" />
    <glyph glyph-name="hungarumlaut" unicode="&#x2dd;" horiz-adv-x="426" 
d="M144 713q8 23 20.5 34t35.5 11q20 0 31 -13t11 -30q0 -13 -5.5 -23t-15.5 -25l-81 -107l-46 19zM287 713q8 23 20.5 34t34.5 11q20 0 31.5 -13t11.5 -30q0 -13 -5.5 -23t-15.5 -25l-81 -107l-46 19z" />
    <glyph glyph-name="uni0394.001" unicode="&#x394;" horiz-adv-x="692" 
d="M401 700l269 -700h-650l269 700h112zM291 534l-182 -473h365z" />
    <glyph glyph-name="uni03A9.001" unicode="&#x3a9;" horiz-adv-x="813" 
d="M63 208q16 -32 55 -60.5t112 -28.5h50l1 6q-230 138 -230 316q0 83 43 146t123 97.5t189 34.5t189.5 -34.5t123 -97.5t42.5 -146q0 -178 -229 -316l1 -6h50q73 0 112 28.5t55 60.5l36 -16l-63 -214h-12q-32 22 -103 22h-167v132q82 65 118 134t36 167q0 108 -43.5 168
t-145.5 60t-145.5 -60.5t-42.5 -167.5q0 -98 36 -167t117 -134v-132h-166q-71 0 -103 -22h-12l-63 214z" />
    <glyph glyph-name="uni03BC" unicode="&#x3bc;" horiz-adv-x="630" 
d="M572 -10q-31 -9 -57 -9q-50 0 -77.5 19.5t-32.5 65.5h-3q-61 -84 -163 -84q-37 0 -61 8q5 -11 9 -19t7 -15q17 -32 25 -53.5t8 -39.5q0 -40 -24 -61t-61 -21q-35 0 -59.5 24t-24.5 64v314v6v283h134v-292q-1 -58 26.5 -87t77.5 -29q45 0 76.5 33t31.5 82v293h133l1 -368
q0 -47 32 -47q19 0 36 10l14 -54q-17 -14 -48 -23z" />
    <glyph glyph-name="pi" unicode="&#x3c0;" horiz-adv-x="612" 
d="M579.5 418q-8.5 -19 -30.5 -37.5t-61 -19.5l1 -263q0 -24 7.5 -35t23.5 -11t34 9l13 -50q-16 -13 -45.5 -21.5t-53.5 -8.5q-51 0 -77.5 22.5t-26.5 76.5v268h-96v-188q0 -82 -35 -130.5t-104 -48.5q-45 0 -75.5 21t-30.5 58q0 22 18 39t41 17q21 0 32 -10.5t20 -29.5
q8 -14 13.5 -20t14.5 -6q19 0 31.5 17t12.5 47v234h-26q-33 0 -50 -18t-17 -47h-48q0 76 41.5 132t139.5 56h350v-6q-8 -28 -16.5 -47z" />
    <glyph glyph-name="Wgrave" unicode="&#x1e80;" horiz-adv-x="1012" 
d="M377 856q-10 13 -10 32q0 17 12.5 29.5t32.5 12.5q19 0 32.5 -8.5t27.5 -26.5l96 -125l-35 -27l-129 89q-17 11 -27 24zM978 640.5q-20 -19.5 -29 -52.5l-163 -543q16 -21 21 -25l-6 -19q-58 0 -103 -6.5t-62 -12.5h-14l-115 426h-7l-113 -360q5 -9 23 -29l-6 -19
q-36 1 -80 -3t-85 -15h-8l-170 606q-9 33 -28 52.5t-42 25.5l8 34h254l5 -34q-15 -4 -24.5 -17t-9.5 -33q0 -15 4 -28l122 -434h5l119 376l-9 35q-2 6 -8 28.5t-17.5 40t-30.5 33.5l10 34q43 -1 88.5 3.5t77.5 16.5h7l154 -567h6l131 434q5 18 5 30q0 19 -9 31.5t-23 16.5
l4 34h154l7 -34q-23 -6 -43 -25.5z" />
    <glyph glyph-name="wgrave" unicode="&#x1e81;" horiz-adv-x="780" 
d="M281 678q-10 13 -10 32q0 17 12.5 29.5t32.5 12.5q19 0 32.5 -8.5t27.5 -26.5l96 -125l-35 -27l-129 89q-17 11 -27 24zM746.5 516.5q21.5 -24.5 21.5 -62.5q0 -27 -11 -61.5t-32 -82.5l-132 -310h-110l-86 274h-4l-91 -274h-128l-101 356q-21 69 -78 79l6 34
q40 6 82 24.5t71 47.5h12l112 -394h5l123 375h63l119 -375h5l79 192q9 23 9 33q0 11 -7 18.5t-20 17.5q-21 14 -31.5 28t-10.5 39q0 30 20 48t54 18q39 0 60.5 -24.5z" />
    <glyph glyph-name="Wacute" unicode="&#x1e82;" horiz-adv-x="1012" 
d="M462 771l95 124q14 18 28 26.5t33 8.5t31.5 -12.5t12.5 -29.5q0 -19 -10 -32t-27 -24l-129 -89zM978 640.5q-20 -19.5 -29 -52.5l-163 -543q16 -21 21 -25l-6 -19q-58 0 -103 -6.5t-62 -12.5h-14l-115 426h-7l-113 -360q5 -9 23 -29l-6 -19q-36 1 -80 -3t-85 -15h-8
l-170 606q-9 33 -28 52.5t-42 25.5l8 34h254l5 -34q-15 -4 -24.5 -17t-9.5 -33q0 -15 4 -28l122 -434h5l119 376l-9 35q-2 6 -8 28.5t-17.5 40t-30.5 33.5l9 34q44 -1 89.5 3.5t77.5 16.5h7l154 -567h6l131 434q5 18 5 30q0 19 -9 31.5t-23 16.5l5 34h153l7 -34
q-23 -6 -43 -25.5z" />
    <glyph glyph-name="wacute" unicode="&#x1e83;" horiz-adv-x="780" 
d="M374 593l96 125q14 17 27.5 26t32.5 9t31.5 -12.5t12.5 -30.5q0 -33 -36 -56l-130 -89zM746.5 516.5q21.5 -24.5 21.5 -62.5q0 -27 -11 -61.5t-32 -82.5l-132 -310h-110l-86 274h-4l-91 -274h-128l-101 356q-21 69 -78 79l6 34q40 6 82 24.5t71 47.5h12l112 -394h5
l123 375h63l119 -375h5l79 192q9 23 9 33q0 11 -7 18.5t-20 17.5q-21 14 -31.5 28t-10.5 39q0 30 20 48t54 18q39 0 60.5 -24.5z" />
    <glyph glyph-name="Wdieresis" unicode="&#x1e84;" horiz-adv-x="1012" 
d="M356.5 795q-19.5 20 -19.5 46q0 28 19.5 48.5t51.5 20.5t52 -20.5t20 -48.5q0 -26 -20 -46t-52 -20t-51.5 20zM551.5 795q-19.5 20 -19.5 46q0 28 19.5 48.5t51.5 20.5t52 -20.5t20 -48.5q0 -26 -20 -46t-52 -20t-51.5 20zM978 640.5q-20 -19.5 -29 -52.5l-163 -543
q16 -21 21 -25l-6 -19q-58 0 -103 -6.5t-62 -12.5h-14l-115 426h-7l-113 -360q5 -9 23 -29l-6 -19q-36 1 -80 -3t-85 -15h-8l-170 606q-9 33 -28 52.5t-42 25.5l8 34h254l5 -34q-15 -4 -24.5 -17t-9.5 -33q0 -15 4 -28l122 -434h5l119 376l-9 35q-2 7 -8 29.5t-17 39.5
t-30 33l9 34q43 -1 88.5 3.5t77.5 16.5h7l154 -567h6l131 434q5 18 5 30q0 19 -9.5 31.5t-23.5 16.5l5 34h154l7 -34q-23 -6 -43 -25.5z" />
    <glyph glyph-name="wdieresis" unicode="&#x1e85;" horiz-adv-x="780" 
d="M241.5 617q-19.5 20 -19.5 46q0 28 19.5 48.5t51.5 20.5t51.5 -20.5t19.5 -48.5q0 -26 -19.5 -46t-51.5 -20t-51.5 20zM436.5 617q-19.5 20 -19.5 46q0 28 19.5 48.5t51.5 20.5t52 -20.5t20 -48.5q0 -26 -20 -46t-52 -20t-51.5 20zM746.5 516.5q21.5 -24.5 21.5 -62.5
q0 -27 -11 -61.5t-32 -82.5l-132 -310h-110l-86 274h-4l-91 -274h-128l-101 356q-21 69 -78 79l6 34q40 6 82 24.5t71 47.5h12l112 -394h5l123 375h63l119 -375h5l79 192q9 23 9 33q0 11 -7 18.5t-20 17.5q-21 14 -31.5 28t-10.5 39q0 30 20 48t54 18q39 0 60.5 -24.5z" />
    <glyph glyph-name="endash" unicode="&#x2013;" horiz-adv-x="362" 
d="M348 320v-102h-334v102h334z" />
    <glyph glyph-name="emdash" unicode="&#x2014;" horiz-adv-x="447" 
d="M433 320v-102h-419v102h419z" />
    <glyph glyph-name="quoteleft" unicode="&#x2018;" horiz-adv-x="256" 
d="M198 509q25 -24 25 -62q0 -37 -28.5 -60t-68.5 -23q-45 0 -72.5 31t-27.5 84q0 71 42 140t109 108l35 -46q-39 -27 -65.5 -66t-38.5 -87l3 -3q13 8 26 8q36 0 61 -24z" />
    <glyph glyph-name="quoteright" unicode="&#x2019;" horiz-adv-x="257" 
d="M202.5 687.5q27.5 -31.5 27.5 -83.5q0 -71 -42 -140t-109 -108l-35 45q39 27 66 66t39 87l-3 3q-14 -7 -26 -7q-36 0 -61 24t-25 61t28.5 60.5t68.5 23.5q44 0 71.5 -31.5z" />
    <glyph glyph-name="quotesinglbase" unicode="&#x201a;" horiz-adv-x="257" 
d="M202.5 118.5q27.5 -31.5 27.5 -83.5q0 -71 -42 -140t-109 -108l-35 45q81 56 105 154l-3 3q-13 -8 -26 -8q-36 0 -61 24t-25 62q0 37 28.5 60t68.5 23q44 0 71.5 -31.5z" />
    <glyph glyph-name="quotedblleft" unicode="&#x201c;" horiz-adv-x="488" 
d="M198 509q25 -24 25 -62q0 -37 -28.5 -60t-68.5 -23q-45 0 -72.5 31t-27.5 84q0 71 42 140t109 108l35 -46q-39 -27 -65.5 -66t-38.5 -87l3 -3q13 8 26 8q36 0 61 -24zM429 509q25 -24 25 -62q0 -37 -28.5 -60t-68.5 -23q-45 0 -72 31t-27 84q0 71 42 140t109 108l35 -46
q-39 -27 -66 -66t-39 -87l3 -3q13 8 26 8q36 0 61 -24z" />
    <glyph glyph-name="quotedblright" unicode="&#x201d;" horiz-adv-x="488" 
d="M202.5 687.5q27.5 -31.5 27.5 -83.5q0 -71 -42 -140t-109 -108l-35 45q39 27 66 66t39 87l-3 3q-14 -7 -26 -7q-36 0 -61 24t-25 61t28.5 60.5t68.5 23.5q44 0 71.5 -31.5zM434.5 687.5q27.5 -31.5 27.5 -83.5q0 -71 -42 -140t-109 -108l-35 45q39 27 65.5 66t38.5 87
l-3 3q-14 -7 -26 -7q-36 0 -61 24t-25 61t28.5 60.5t68.5 23.5q45 0 72.5 -31.5z" />
    <glyph glyph-name="quotedblbase" unicode="&#x201e;" horiz-adv-x="488" 
d="M202.5 118.5q27.5 -31.5 27.5 -83.5q0 -71 -42 -140t-109 -108l-35 45q81 56 105 154l-3 3q-13 -8 -26 -8q-36 0 -61 24t-25 62q0 37 28.5 60t68.5 23q44 0 71.5 -31.5zM434.5 118.5q27.5 -31.5 27.5 -83.5q0 -71 -42 -140t-109 -108l-35 45q80 57 104 154l-3 3
q-13 -8 -26 -8q-36 0 -61 24t-25 62q0 37 28.5 60t68.5 23q45 0 72.5 -31.5z" />
    <glyph glyph-name="dagger" unicode="&#x2020;" horiz-adv-x="430" 
d="M163 446q21 32 33 72l-2 3q-38 -7 -77 -19q-33 -11 -49 -11q-23 0 -36.5 12.5t-13.5 31.5q0 20 13.5 32t35.5 12q19 0 54 -10q34 -11 74 -18l2 2q-5 29 -19 70q-4 12 -7.5 24t-3.5 23q0 23 14 36t34 13q21 0 34.5 -13t13.5 -36q0 -11 -3.5 -23t-7.5 -24q-14 -41 -19 -70
l2 -2q44 8 74 18q35 10 53 10q23 0 36.5 -12t13.5 -32q0 -19 -13.5 -31.5t-36.5 -12.5q-16 0 -49 11q-39 12 -77 19l-2 -3q13 -40 33 -72q-35 -124 -38 -446h-28q-1 317 -38 446z" />
    <glyph glyph-name="daggerdbl" unicode="&#x2021;" horiz-adv-x="430" 
d="M180.5 -6.5q-13.5 12.5 -13.5 36.5q0 17 10 44q13 33 20 74l-2 2q-39 -7 -78 -19q-33 -11 -49 -11q-23 0 -36.5 12.5t-13.5 31.5q0 20 13.5 32.5t36.5 12.5q14 0 29.5 -4.5t20.5 -5.5q46 -15 76 -19l2 2q0 44 -38 168q38 123 38 167l-2 3q-30 -4 -76 -19
q-5 -1 -20.5 -5.5t-29.5 -4.5q-23 0 -36.5 12t-13.5 32q0 19 13.5 31.5t36.5 12.5q18 0 51 -10q37 -12 76 -18l2 2q-6 34 -19 70q-11 31 -11 47q0 23 14 36t34 13q21 0 34.5 -13t13.5 -36q0 -16 -11 -47q-13 -36 -19 -70l2 -2q39 6 76 18q33 10 51 10q23 0 36.5 -12.5
t13.5 -31.5q0 -20 -13.5 -32t-36.5 -12q-14 0 -29.5 4.5t-20.5 5.5q-46 15 -76 19l-2 -3q0 -43 38 -167q-38 -124 -38 -168l2 -2q30 4 76 19q5 1 20.5 5.5t29.5 4.5q23 0 36.5 -12.5t13.5 -32.5q0 -19 -13.5 -31.5t-35.5 -12.5q-11 0 -24 3.5t-27 7.5q-40 13 -77 19l-2 -2
q5 -29 20 -73q4 -12 7.5 -23.5t3.5 -21.5q0 -24 -14 -36.5t-35 -12.5t-34.5 12.5z" />
    <glyph glyph-name="bullet" unicode="&#x2022;" horiz-adv-x="308" 
d="M86 187q-31 18 -49.5 49t-18.5 67t18.5 67t49.5 49t68 18t68 -18t49.5 -49t18.5 -67t-18.5 -67t-49.5 -49t-68 -18t-68 18z" />
    <glyph glyph-name="ellipsis" unicode="&#x2026;" horiz-adv-x="816" 
d="M70.5 6.5q-26.5 25.5 -27.5 66.5q0 40 27 65.5t66 25.5q38 0 65 -25.5t28 -65.5q0 -41 -27 -66.5t-66 -25.5t-65.5 25.5zM342.5 6.5q-26.5 25.5 -27.5 66.5q0 40 27 65.5t66 25.5q38 0 65 -25.5t28 -65.5q0 -41 -27 -66.5t-66 -25.5t-65.5 25.5zM614.5 6.5
q-26.5 25.5 -27.5 66.5q0 40 27 65.5t66 25.5q38 0 65 -25.5t28 -65.5q0 -41 -27 -66.5t-66 -25.5t-65.5 25.5z" />
    <glyph glyph-name="perthousand" unicode="&#x2030;" horiz-adv-x="1273" 
d="M110 362q-44 25 -69 68.5t-25 97.5q0 56 24 99t67.5 67.5t100.5 24.5q55 0 98.5 -25t67.5 -68.5t24 -98.5q0 -54 -23.5 -97.5t-66.5 -68t-98 -24.5q-56 0 -100 25zM614 700l-313 -700h-65l314 700h64zM268 430.5q22 36.5 22 95.5q0 61 -23 97t-59 36q-38 0 -60.5 -35
t-22.5 -97q0 -59 23.5 -96t60.5 -37t59 36.5zM544 6q-44 25 -68.5 68.5t-24.5 97.5q0 85 52.5 137.5t138.5 52.5q55 0 98.5 -24.5t68 -68t24.5 -98.5q0 -54 -24 -97.5t-66.5 -68t-98.5 -24.5t-100 25zM967 6q-44 25 -68.5 68.5t-24.5 97.5q0 85 52.5 137.5t138.5 52.5
q55 0 98.5 -24.5t68 -68t24.5 -98.5q0 -54 -24 -97.5t-66.5 -68t-98.5 -24.5t-100 25zM702 74.5q22 36.5 22 95.5q0 61 -23 97.5t-59 36.5q-38 0 -60.5 -36t-22.5 -97q0 -59 23.5 -96t60.5 -37t59 36.5zM1125 74.5q22 36.5 22 95.5q0 61 -23 97.5t-59 36.5q-38 0 -60 -36
t-22 -97q0 -59 23 -96t60 -37t59 36.5z" />
    <glyph glyph-name="guilsinglleft" unicode="&#x2039;" horiz-adv-x="292" 
d="M26 267l205 218l35 -23l-107 -222l107 -222l-35 -22l-205 218v53z" />
    <glyph glyph-name="guilsinglright" unicode="&#x203a;" horiz-adv-x="292" 
d="M133 240l-107 222l35 23l205 -218v-53l-205 -218l-35 22z" />
    <glyph glyph-name="fraction" unicode="&#x2044;" horiz-adv-x="158" 
d="M373 700l-531 -700h-57l531 700h57z" />
    <glyph glyph-name="uni2070" unicode="&#x2070;" horiz-adv-x="250" 
d="M41 459q-30 38 -30 104q0 67 30 105.5t84 38.5t84 -38.5t30 -105.5q0 -66 -30 -104t-84 -38t-84 38zM159.5 476q10.5 28 10.5 87t-10.5 87.5t-34.5 28.5t-34 -28t-10 -88q0 -59 10 -87t34 -28t34.5 28z" />
    <glyph glyph-name="uni2074" unicode="&#x2074;" horiz-adv-x="250" 
d="M195 474q0 -25 28 -32l-3 -14h-120l-3 14q29 7 29 32v19h-114v20l134 187h49v-181h43l-6 -26h-37v-19zM126 627h-2l-76 -106v-2h78v108z" />
    <glyph glyph-name="uni2075" unicode="&#x2075;" horiz-adv-x="232" 
d="M186 582.5q27 -23.5 27 -62.5q0 -42 -29.5 -70.5t-81.5 -28.5q-32 0 -58 12.5t-26 34.5q0 12 7.5 19.5t18.5 7.5q14 0 19.5 -5.5t10.5 -16.5q5 -12 12 -18t25 -6q25 0 39 14t14 38t-18 39.5t-50 15.5q-29 0 -56 -15l-16 4l24 155h101q38 0 47 8h5l-8 -58h-127l-8 -54
q20 10 53 10q48 0 75 -23.5z" />
    <glyph glyph-name="uni2076" unicode="&#x2076;" horiz-adv-x="243" 
d="M207 581.5q22 -25.5 22 -64.5q0 -41 -30.5 -68t-78.5 -27t-77 33.5t-29 89.5q0 80 49.5 121t127.5 41v-19q-37 0 -65.5 -25.5t-38.5 -76.5h2q8 9 23.5 15t31.5 6q41 0 63 -25.5zM150 464q10 18 10 52q0 58 -39 58q-11 0 -21.5 -6.5t-16.5 -17.5q-1 -6 -1 -18q0 -44 9 -65
t29 -21t30 18z" />
    <glyph glyph-name="uni2077" unicode="&#x2077;" horiz-adv-x="230" 
d="M213 667q-45 -56 -66 -101.5t-21 -106.5q0 -19 -10.5 -28.5t-24.5 -9.5q-16 0 -25.5 10.5t-9.5 27.5q0 51 33.5 101t79.5 88v2h-45q-61 -1 -92 -36l-15 6l27 88h4q6 -3 23.5 -5.5t31.5 -2.5h110v-33z" />
    <glyph glyph-name="uni2078" unicode="&#x2078;" horiz-adv-x="243" 
d="M42.5 444.5q-28.5 21.5 -28.5 51.5q0 47 50 72v2q-18 12 -28 27t-10 39q0 29 28 51t73 22q43 0 66.5 -19t23.5 -45q0 -42 -43 -64v-2q27 -15 41 -31t14 -44q0 -36 -31 -58.5t-81 -22.5q-46 0 -74.5 21.5zM175 645q0 18 -10.5 28t-30.5 10q-18 0 -29 -8.5t-11 -24.5
q0 -32 46 -54q35 20 35 49zM149.5 459q12.5 11 12.5 29q0 23 -16.5 36t-50.5 29q-35 -21 -35 -57q0 -21 15 -34.5t39 -13.5q23 0 35.5 11z" />
    <glyph glyph-name="uni2079" unicode="&#x2079;" horiz-adv-x="243" 
d="M199.5 674q29.5 -34 29.5 -89q0 -81 -49.5 -121.5t-127.5 -40.5l-1 18q37 0 65.5 25.5t38.5 76.5h-1q-9 -9 -24 -14.5t-31 -5.5q-42 0 -63.5 26t-21.5 64q0 40 30.5 67.5t77.5 27.5q48 0 77.5 -34zM142.5 561.5q10.5 6.5 17.5 17.5v18q0 45 -8.5 65.5t-29.5 20.5
q-39 0 -39 -70q0 -58 39 -58q10 0 20.5 6.5z" />
    <glyph glyph-name="uni207F" unicode="&#x207f;" horiz-adv-x="297" 
d="M284 432l-3 -16h-104l-4 16q21 7 20 37l-10 96q-2 24 -12.5 37.5t-28.5 13.5t-29.5 -14t-11.5 -34v-99q0 -30 23 -37l-4 -16h-104l-3 16q22 7 22 37v101q0 30 -22 37l3 16q37 5 75 33h6l2 -35h2q25 35 64 35q76 0 85 -95l8 -92q3 -30 26 -37z" />
    <glyph glyph-name="uni2080" unicode="&#x2080;" horiz-adv-x="250" 
d="M41 30.5q-30 38.5 -30 104.5q0 67 30 105.5t84 38.5t84 -38.5t30 -105.5q0 -66 -30 -104.5t-84 -38.5t-84 38.5zM159.5 48q10.5 28 10.5 87t-10.5 87.5t-34.5 28.5t-34 -28t-10 -88q0 -59 10 -87t34 -28t34.5 28z" />
    <glyph glyph-name="uni2081" unicode="&#x2081;" horiz-adv-x="196" 
d="M65 46v171h-28l-2 16l78 38h20v-225q0 -24 28 -32l-2 -14h-120l-3 14q29 7 29 32z" />
    <glyph glyph-name="uni2082" unicode="&#x2082;" horiz-adv-x="237" 
d="M194 -8h-5q-7 3 -24 5.5t-30 2.5h-115v35q57 41 88 78t31 85q0 25 -12.5 39.5t-33.5 14.5q-22 0 -38.5 -17.5t-17.5 -48.5l-20 3q1 41 27.5 65.5t66.5 24.5q42 0 69 -22t27 -59q0 -48 -34 -82t-92 -65v-1h33q61 0 91 34l15 -7z" />
    <glyph glyph-name="uni2083" unicode="&#x2083;" horiz-adv-x="236" 
d="M43.5 6q-26.5 13 -26.5 36q0 12 7 19.5t19 7.5q13 0 19 -6.5t11 -18.5q6 -13 12 -19t18 -6q23 0 36 15.5t13 43.5t-15.5 45.5t-43.5 17.5h-10v23h10q20 0 31.5 13.5t11.5 33.5q0 18 -11.5 29.5t-31.5 11.5t-33.5 -14t-14.5 -39l-18 2q3 36 27 57t63 21t61.5 -18t22.5 -44
q0 -20 -11.5 -35t-33.5 -22v-3q27 -5 45 -24.5t18 -46.5q0 -40 -30.5 -66.5t-85.5 -26.5q-33 0 -59.5 13z" />
    <glyph glyph-name="uni2084" unicode="&#x2084;" horiz-adv-x="250" 
d="M195 46q0 -25 28 -32l-2 -14h-121l-2 14q28 7 28 32v19h-114v20l134 186h49v-180h43l-6 -26h-37v-19zM126 197h-2l-76 -104v-2h78v106z" />
    <glyph glyph-name="uni2085" unicode="&#x2085;" horiz-adv-x="232" 
d="M186 153.5q27 -23.5 27 -62.5q0 -42 -29.5 -70.5t-81.5 -28.5q-32 0 -58 12.5t-26 35.5q0 11 7.5 18.5t18.5 7.5q14 0 19.5 -5.5t10.5 -16.5q5 -12 12 -18t25 -6q25 0 39 14t14 38t-18 39.5t-50 15.5q-29 0 -56 -15l-16 4l24 155h101q38 0 47 8h5l-8 -58h-127l-8 -54
q20 10 53 10q48 0 75 -23.5z" />
    <glyph glyph-name="uni2086" unicode="&#x2086;" horiz-adv-x="243" 
d="M207 154.5q22 -25.5 22 -64.5q0 -42 -30.5 -68.5t-78.5 -26.5t-77 33.5t-29 89.5q0 80 49.5 121t127.5 41v-19q-37 0 -65.5 -25.5t-38.5 -76.5h2q8 9 23.5 15t31.5 6q41 0 63 -25.5zM150 37q10 18 10 52q0 58 -39 58q-11 0 -21.5 -6.5t-16.5 -17.5q-1 -6 -1 -18
q0 -44 9 -65t29 -21t30 18z" />
    <glyph glyph-name="uni2087" unicode="&#x2087;" horiz-adv-x="230" 
d="M213 237q-45 -56 -66 -101t-21 -107q0 -19 -10.5 -28t-24.5 -9q-16 0 -25.5 10.5t-9.5 26.5q0 51 33.5 101.5t79.5 88.5v2h-45q-60 -1 -92 -37l-15 7l27 88h4q6 -4 23 -6t32 -2h110v-34z" />
    <glyph glyph-name="uni2088" unicode="&#x2088;" horiz-adv-x="243" 
d="M42.5 16q-28.5 21 -28.5 51q0 47 50 72v2q-18 12 -28 27t-10 39q0 29 28 51t73 22q43 0 66.5 -19t23.5 -45q0 -42 -43 -64v-2q26 -14 40.5 -30t14.5 -45q0 -36 -30.5 -58t-81.5 -22q-46 0 -74.5 21zM175 217q0 17 -10.5 27.5t-30.5 10.5q-18 0 -29 -9t-11 -25
q0 -33 46 -53q35 18 35 49zM149 30.5q13 11.5 13 28.5q0 23 -16.5 36t-50.5 29q-35 -21 -35 -56q0 -21 15 -35t39 -14q22 0 35 11.5z" />
    <glyph glyph-name="uni2089" unicode="&#x2089;" horiz-adv-x="243" 
d="M199.5 245q29.5 -34 29.5 -90q0 -79 -49.5 -120t-127.5 -41l-1 18q37 0 65.5 25.5t38.5 76.5h-1q-9 -9 -24 -15t-31 -6q-42 0 -63.5 26t-21.5 64q0 42 30 69t78 27t77.5 -34zM142.5 132.5q10.5 6.5 16.5 17.5q1 6 1 18q0 45 -8.5 65.5t-29.5 20.5q-39 0 -39 -69
q0 -59 39 -59q10 0 20.5 6.5z" />
    <glyph glyph-name="Euro" unicode="&#x20ac;" horiz-adv-x="712" 
d="M588 80q43 25 72 67l31 -24q-36 -68 -95.5 -105t-139.5 -37q-129 0 -211 68.5t-106 190.5h-118v70h109q-1 11 -1 34q0 18 2 50h-110v67h122q30 118 114.5 188t198.5 70q29 0 73 -8q42 -8 64 -8q32 0 44 8t13 9h12l33 -188l-35 -9q-30 64 -70 98.5t-106 34.5
q-68 0 -120.5 -52t-73.5 -143h244v-67h-254q-1 -12 -1 -38q0 -16 2 -46h253v-70h-243q20 -91 72.5 -138t126.5 -47q55 0 98 25z" />
    <glyph glyph-name="uni2113" unicode="&#x2113;" horiz-adv-x="440" 
d="M118.5 24.5q-31.5 43.5 -31.5 112.5q0 21 3 43l7 54l-76 -51l-12 25l94 71l14 92q25 183 73.5 267t134.5 84q43 0 70.5 -33t27.5 -88q0 -65 -35.5 -121.5t-80 -96t-108.5 -86.5q-4 -3 -9 -6t-11 -8l-13 -91q-5 -35 -5 -56q0 -100 76 -100q35 0 66 23.5t69 64.5l19 -20
q-39 -54 -87 -88.5t-97 -34.5q-57 0 -88.5 43.5zM362 582q2 18 2 25q0 35 -15 57t-42 22q-39 0 -63.5 -56.5t-41.5 -178.5l-17 -122q160 125 177 253z" />
    <glyph glyph-name="trademark" unicode="&#x2122;" horiz-adv-x="480" 
d="M221 642l-12 -6q-10 16 -27 28t-38 13v-148q0 -21 16 -26l-3 -11h-82l-3 11q7 2 11.5 9t4.5 17v148q-22 -1 -39 -13t-27 -28l-12 6l19 58h175zM463 503l-2 -11h-81l-3 11q16 5 16 26l-1 93h-2l-47 -130h-21l-47 130h-2v-93q0 -21 15 -26l-3 -11h-49l-3 11q16 5 16 26v133
q-2 23 -16 26l2 12h69l44 -122h2l44 122h68l1 -12q-7 -2 -11 -9t-4 -17v-133q0 -21 15 -26z" />
    <glyph glyph-name="uni2126" unicode="&#x2126;" horiz-adv-x="803" 
d="M57 208q17 -33 55.5 -61t111.5 -28h51v6q-229 138 -229 316q0 83 43 146t123 97.5t189 34.5t189 -34.5t123 -97.5t43 -146q0 -179 -230 -316l1 -6h51q73 0 111.5 28t54.5 61l37 -16l-63 -214h-13q-32 22 -103 22h-166v132q82 65 118 134.5t36 166.5q0 107 -43.5 167.5
t-145.5 60.5t-145.5 -60t-43.5 -168q0 -97 36 -166.5t117 -134.5l1 -132h-167q-70 0 -102 -22h-13l-63 214z" />
    <glyph glyph-name="estimated" unicode="&#x212e;" horiz-adv-x="804" 
d="M216 30.5q-86 49.5 -136.5 134.5t-50.5 185t50 185t136 134.5t187 49.5t187 -49.5t136 -134.5t50 -185v-9h-580v-245q51 -39 102 -57.5t107 -18.5q74 0 130 25t99 79h49q-49 -67 -120 -105t-159 -38q-101 0 -187 49.5zM604 606q-40 36 -91 55.5t-109 19.5
q-122 0 -207 -80v-225h407v230z" />
    <glyph glyph-name="partialdiff" unicode="&#x2202;" horiz-adv-x="613" 
d="M462.5 682.5q59.5 -36.5 95 -106.5t35.5 -167q0 -54 -14 -122q-19 -92 -66.5 -161.5t-116 -107t-149.5 -37.5q-71 0 -123 27t-79 74t-27 106q0 27 6 55q15 69 58.5 120t104.5 77.5t130 26.5q31 0 62.5 -9t52.5 -23q3 38 3 73q0 139 -50 139q-14 0 -23.5 -7.5t-22.5 -23.5
q-14 -17 -26 -26t-30 -9q-28 0 -45.5 16t-17.5 40q0 36 28.5 59t83.5 23q71 0 130.5 -36.5zM349 91q34 54 56 161q13 67 21 125q-36 36 -90 36q-55 0 -92 -45.5t-54 -126.5q-10 -50 -10 -88q0 -53 18.5 -84.5t60.5 -31.5q56 0 90 54z" />
    <glyph glyph-name="uni2206" unicode="&#x2206;" horiz-adv-x="686" 
d="M399 700l269 -700h-650l269 700h112zM289 534l-182 -473h365z" />
    <glyph glyph-name="product" unicode="&#x220f;" horiz-adv-x="754" 
d="M70 59.5q19 18.5 19 52.5v476q0 34 -19.5 52.5t-46.5 25.5l6 34h696l6 -34q-27 -7 -46.5 -25.5t-19.5 -52.5v-476q0 -34 19.5 -52.5t46.5 -26.5l-6 -33h-276l-6 33q27 8 46.5 26.5t19.5 52.5v517h-264v-517q0 -34 19.5 -52.5t46.5 -26.5l-6 -33h-275l-6 33q27 8 46 26.5z
" />
    <glyph glyph-name="summation" unicode="&#x2211;" horiz-adv-x="636" 
d="M235 332l-207 325v43h518l49 -160l-35 -17q-47 61 -105 88.5t-146 27.5h-83l149 -236l-204 -281h179q74 0 117 6t73 23t57 50l33 -22l-79 -179h-533v43z" />
    <glyph glyph-name="minus" unicode="&#x2212;" horiz-adv-x="353" 
d="M339 320v-102h-325v102h325z" />
    <glyph glyph-name="uni2215" unicode="&#x2215;" horiz-adv-x="274" 
d="M301 359v-94h-311v94h311z" />
    <glyph glyph-name="uni2219" unicode="&#x2219;" horiz-adv-x="228" 
d="M48.5 310.5q-26.5 25.5 -26.5 66.5q0 40 26.5 65.5t65.5 25.5t66 -25.5t27 -65.5q0 -41 -27 -66.5t-66 -25.5t-65.5 25.5z" />
    <glyph glyph-name="radical" unicode="&#x221a;" horiz-adv-x="563" 
d="M13 220v60h149l83 -201l257 621h65l-289 -700h-65l-92 220h-108z" />
    <glyph glyph-name="infinity" unicode="&#x221e;" horiz-adv-x="850" 
d="M111 178.5q-45 26.5 -72 72.5t-27 100t27 99.5t72 72.5t98 27q72 0 120.5 -37.5t94.5 -105.5h3q46 68 94 105.5t119 37.5q53 0 98 -27t72 -72.5t27 -99.5t-27 -100t-72 -72.5t-97 -26.5q-73 0 -121.5 37t-95.5 105h-3q-44 -67 -92.5 -104.5t-119.5 -37.5q-53 0 -98 26.5z
M709.5 241.5q31.5 18.5 49.5 50t18 68.5q0 38 -18 70t-49.5 51t-69.5 19q-58 0 -97.5 -35.5t-81.5 -102.5q29 -45 53 -73.5t55.5 -47t71.5 -18.5q37 0 68.5 18.5zM306 236.5q39 34.5 83 101.5q-44 69 -83.5 105t-96.5 36q-38 0 -69.5 -18.5t-49.5 -50t-18 -69.5t18 -69.5
t49.5 -50.5t69.5 -19q58 0 97 34.5z" />
    <glyph glyph-name="integral" unicode="&#x222b;" horiz-adv-x="338" 
d="M-63 -178.5q-30 20.5 -30 58.5q0 25 19 43t44 18q22 0 34.5 -11.5t25.5 -32.5q9 -14 15.5 -21t15.5 -7q18 0 29.5 17t11.5 46v742q0 69 29 120t79 78t112 27q46 0 75.5 -19.5t29.5 -52.5q0 -28 -18 -46.5t-46 -18.5q-23 0 -34.5 10.5t-23.5 30.5q-10 15 -15.5 21t-15.5 6
q-18 0 -28 -17t-10 -46v-735q0 -75 -29.5 -127t-79.5 -78t-112 -26q-48 0 -78 20.5z" />
    <glyph glyph-name="approxequal" unicode="&#x2248;" horiz-adv-x="476" 
d="M281.5 374q-33.5 11 -77.5 31q-32 15 -53.5 22.5t-41.5 7.5t-35.5 -11.5t-24.5 -30.5l-35 18q13 38 43.5 61t71.5 23q39 0 72.5 -10.5t78.5 -30.5q34 -15 55 -22.5t41 -7.5q15 0 29 8t24 21l33 -23q-16 -29 -45 -48t-63 -19q-39 0 -72.5 11zM281.5 228q-33.5 11 -77.5 31
q-32 15 -53.5 22.5t-41.5 7.5t-36 -11.5t-24 -30.5l-35 19q13 38 43.5 60.5t71.5 22.5q39 0 72.5 -10.5t78.5 -30.5q34 -15 55 -22.5t41 -7.5q29 0 53 30l33 -24q-16 -29 -45 -48t-63 -19q-39 0 -72.5 11z" />
    <glyph glyph-name="notequal" unicode="&#x2260;" horiz-adv-x="573" 
d="M14 223v60h222l39 138h-261v60h278l40 143h62l-41 -143h207v-60h-223l-40 -138h263v-60h-279l-41 -144h-62l41 144h-205z" />
    <glyph glyph-name="lessequal" unicode="&#x2264;" horiz-adv-x="574" 
d="M35 373l504 208v-65l-420 -174v-4l420 -174v-65l-504 209v65zM560 57v-57h-546v57h546z" />
    <glyph glyph-name="greaterequal" unicode="&#x2265;" horiz-adv-x="574" 
d="M455 338v4l-420 174v65l504 -208v-65l-505 -209v65zM560 57v-57h-546v57h546z" />
    <glyph glyph-name="lozenge" unicode="&#x25ca;" horiz-adv-x="543" 
d="M239 700h65l209 -350l-209 -350h-65l-208 350zM448 350l-175 293h-4l-173 -293l173 -292h4z" />
    <glyph glyph-name="uniE000" unicode="&#xe000;" horiz-adv-x="0" 
 />
    <glyph glyph-name="A.s1" unicode="&#xe002;" horiz-adv-x="924" 
d="M860.5 641q-13.5 -20 -13.5 -53v-476q0 -33 13.5 -53t36.5 -25l-6 -34h-246l-6 34q23 6 37 26t14 52v11q-20 69 -75.5 131t-125.5 98l-27 -57q-10 -21 -34 -71t-43 -87q-42 -79 -96 -120.5t-141 -41.5q-51 0 -89 14t-58 38t-20 51q0 29 15.5 47t45.5 18q28 0 42 -12.5
t29 -37.5q13 -23 26.5 -35t38.5 -12q47 0 79 29.5t66 92.5q25 46 75 150q6 12 13 27t16 32q-38 10 -67 10q-56 0 -86.5 -18t-30.5 -44q0 -13 9 -31q10 -20 10 -38q0 -30 -20.5 -49.5t-53.5 -19.5t-54 25t-21 60q0 50 32.5 90.5t88.5 63.5t126 23q47 0 96 -15l15 28
q45 84 89.5 136.5t104.5 80.5t144 28q33 0 89 -7l-5 -10l4 -24q-23 -5 -36.5 -25zM690 628q-40 -20 -69 -50.5t-48 -62.5t-45 -83l-10 -21q48 -22 91.5 -55.5t75.5 -74.5h5v347z" />
    <glyph glyph-name="Aacute.s1" unicode="&#xe003;" horiz-adv-x="924" 
d="M709 771l96 124q13 18 26.5 26.5t33.5 8.5q19 0 31.5 -12.5t12.5 -29.5q0 -33 -36 -56l-130 -89zM561.5 599q44.5 52 104 80t143.5 28q33 0 89 -7l-5 -10l4 -24q-23 -5 -36.5 -25t-13.5 -53v-476q0 -33 13.5 -53t36.5 -25l-6 -34h-246l-6 34q23 6 37 26t14 52v11
q-20 69 -75.5 131t-125.5 98l-25 -53q-46 -97 -79 -162q-42 -79 -96 -120.5t-141 -41.5q-51 0 -89 14t-58 38t-20 51q0 29 15.5 47t45.5 18q28 0 42 -12.5t29 -37.5q13 -23 26.5 -35t38.5 -12q47 0 79 29.5t66 92.5q27 51 64 127l41 82q-38 10 -68 10q-56 0 -86.5 -18
t-30.5 -44q0 -13 9 -31q10 -20 10 -38q0 -30 -20.5 -49.5t-53.5 -19.5t-54 25t-21 60q0 50 32.5 90.5t88.5 63.5t126 23q46 0 97 -15q4 10 14 28q46 85 90.5 137zM690 628q-40 -20 -69 -50.5t-46 -59.5t-47 -86l-10 -21q48 -22 91.5 -55.5t75.5 -74.5h5v347z" />
    <glyph glyph-name="Abreve.s1" unicode="&#xe004;" horiz-adv-x="924" 
d="M897 801.5q-38 -28.5 -96 -28.5q-57 0 -95.5 28.5t-54.5 72.5l45 24q10 -24 39.5 -39.5t65.5 -15.5t66 15.5t40 38.5l44 -23q-16 -44 -54 -72.5zM561.5 599q44.5 52 104 80t143.5 28q33 0 89 -7l-5 -10l4 -24q-23 -5 -36.5 -25t-13.5 -53v-476q0 -33 13.5 -53t36.5 -25
l-6 -34h-246l-6 34q23 6 37 26t14 52v11q-20 69 -75.5 131t-125.5 98l-25 -53q-46 -97 -79 -162q-42 -79 -96 -120.5t-141 -41.5q-51 0 -89 14t-58 38t-20 51q0 29 15.5 47t45.5 18q28 0 42 -12.5t29 -37.5q13 -23 26.5 -35t38.5 -12q47 0 79 29.5t66 92.5q27 51 64 127
l41 82q-38 10 -68 10q-56 0 -86.5 -18t-30.5 -44q0 -13 9 -31q10 -20 10 -38q0 -30 -20.5 -49.5t-53.5 -19.5t-54 25t-21 60q0 50 32.5 90.5t88.5 63.5t126 23q46 0 97 -15q4 10 14 28q46 85 90.5 137zM690 628q-40 -20 -69 -50.5t-46 -59.5t-47 -86l-10 -21
q48 -22 91.5 -55.5t75.5 -74.5h5v347z" />
    <glyph glyph-name="Acircumflex.s1" unicode="&#xe005;" horiz-adv-x="924" 
d="M594 774l161 137l161 -137l-22 -36l-139 62l-138 -62zM561.5 599q44.5 52 104 80t143.5 28q33 0 89 -7l-5 -10l4 -24q-23 -5 -36.5 -25t-13.5 -53v-476q0 -33 13.5 -53t36.5 -25l-6 -34h-246l-6 34q23 6 37 26t14 52v11q-20 69 -75.5 131t-125.5 98l-25 -53
q-46 -97 -79 -162q-42 -79 -96 -120.5t-141 -41.5q-51 0 -89 14t-58 38t-20 51q0 29 15.5 47t45.5 18q28 0 42 -12.5t29 -37.5q13 -23 26.5 -35t38.5 -12q47 0 79 29.5t66 92.5q27 51 64 127l41 82q-38 10 -68 10q-56 0 -86.5 -18t-30.5 -44q0 -13 9 -31q10 -20 10 -38
q0 -30 -20.5 -49.5t-53.5 -19.5t-54 25t-21 60q0 50 32.5 90.5t88.5 63.5t126 23q46 0 97 -15q4 10 14 28q46 85 90.5 137zM690 628q-40 -20 -69 -50.5t-46 -59.5t-47 -86l-10 -21q48 -22 91.5 -55.5t75.5 -74.5h5v347z" />
    <glyph glyph-name="Adieresis.s1" unicode="&#xe006;" horiz-adv-x="924" 
d="M609.5 795q-19.5 20 -19.5 46q0 28 19.5 48.5t51.5 20.5t52 -20.5t20 -48.5q0 -26 -20 -46t-52 -20t-51.5 20zM908 889.5q20 -20.5 20 -48.5q0 -26 -20 -46t-52 -20t-51.5 20t-19.5 46q0 28 19.5 48.5t51.5 20.5t52 -20.5zM561.5 599q44.5 52 104 80t143.5 28q33 0 89 -7
l-5 -10l4 -24q-23 -5 -36.5 -25t-13.5 -53v-476q0 -33 13.5 -53t36.5 -25l-6 -34h-246l-6 34q23 6 37 26t14 52v11q-20 69 -75.5 131t-125.5 98l-25 -53q-46 -97 -79 -162q-42 -79 -96 -120.5t-141 -41.5q-51 0 -89 14t-58 38t-20 51q0 29 15.5 47t45.5 18q28 0 42 -12.5
t29 -37.5q13 -23 26.5 -35t38.5 -12q47 0 79 29.5t66 92.5q27 51 64 127l41 82q-38 10 -68 10q-56 0 -86.5 -18t-30.5 -44q0 -13 9 -31q10 -20 10 -38q0 -30 -20.5 -49.5t-53.5 -19.5t-54 25t-21 60q0 50 32.5 90.5t88.5 63.5t126 23q46 0 97 -15q4 10 14 28q46 85 90.5 137
zM690 628q-40 -20 -69 -50.5t-46 -59.5t-47 -86l-10 -21q48 -22 91.5 -55.5t75.5 -74.5h5v347z" />
    <glyph glyph-name="Agrave.s1" unicode="&#xe007;" horiz-adv-x="924" 
d="M585 888q0 17 12.5 29.5t32.5 12.5q19 0 32.5 -8.5t26.5 -26.5l96 -125l-34 -27l-130 89q-36 23 -36 56zM860.5 641q-13.5 -20 -13.5 -53v-476q0 -33 13.5 -53t36.5 -25l-6 -34h-246l-6 34q23 6 37 26t14 52v11q-20 69 -75.5 131t-125.5 98l-25 -53q-46 -97 -79 -162
q-42 -79 -96 -120.5t-141 -41.5q-51 0 -89 14t-58 38t-20 51q0 29 15.5 47t45.5 18q28 0 42 -12.5t29 -37.5q13 -23 26.5 -35t38.5 -12q47 0 79 29.5t66 92.5q27 51 64 127l41 82q-38 10 -68 10q-56 0 -86.5 -18t-30.5 -44q0 -13 9 -31q10 -20 10 -38q0 -30 -20.5 -49.5
t-53.5 -19.5t-54 25t-21 60q0 50 32.5 90.5t88.5 63.5t126 23q46 0 97 -15q4 10 14 28q46 85 90.5 137t104 80t143.5 28q33 0 89 -7l-5 -10l4 -24q-23 -5 -36.5 -25zM690 628q-40 -20 -69 -50.5t-46 -59.5t-47 -86l-10 -21q48 -22 91.5 -55.5t75.5 -74.5h5v347z" />
    <glyph glyph-name="Amacron.s1" unicode="&#xe008;" horiz-adv-x="924" 
d="M916 797h-293v69h293v-69zM561.5 599q44.5 52 104 80t143.5 28q33 0 89 -7l-5 -10l4 -24q-23 -5 -36.5 -25t-13.5 -53v-476q0 -33 13.5 -53t36.5 -25l-6 -34h-246l-6 34q23 6 37 26t14 52v11q-20 69 -75.5 131t-125.5 98l-25 -53q-46 -97 -79 -162q-42 -79 -96 -120.5
t-141 -41.5q-51 0 -89 14t-58 38t-20 51q0 29 15.5 47t45.5 18q28 0 42 -12.5t29 -37.5q13 -23 26.5 -35t38.5 -12q47 0 79 29.5t66 92.5q27 51 64 127l41 82q-38 10 -68 10q-56 0 -86.5 -18t-30.5 -44q0 -13 9 -31q10 -20 10 -38q0 -30 -20.5 -49.5t-53.5 -19.5t-54 25
t-21 60q0 50 32.5 90.5t88.5 63.5t126 23q46 0 97 -15q4 10 14 28q46 85 90.5 137zM690 628q-40 -20 -69 -50.5t-46 -59.5t-47 -86l-10 -21q48 -22 91.5 -55.5t75.5 -74.5h5v347z" />
    <glyph glyph-name="Aogonek.s1" unicode="&#xe009;" horiz-adv-x="924" 
d="M880 -197.5q-31 -19.5 -77 -19.5q-54 0 -87.5 29t-33.5 74q0 65 62 114h-99l-6 34q23 6 37 26t14 52v11q-20 69 -75.5 131t-125.5 98l-25 -53q-46 -97 -79 -162q-42 -79 -96 -120.5t-141 -41.5q-51 0 -89 14t-58 38t-20 51q0 29 15.5 47t45.5 18q28 0 42 -12.5t29 -37.5
q13 -23 26.5 -35t38.5 -12q47 0 79 29.5t66 92.5q27 51 64 127l41 82q-38 10 -68 10q-56 0 -86.5 -18t-30.5 -44q0 -13 9 -31q10 -20 10 -38q0 -30 -20.5 -49.5t-53.5 -19.5t-54 25t-21 60q0 50 32.5 90.5t88.5 63.5t126 23q46 0 97 -15q4 10 14 28q46 85 90.5 137t104 80
t143.5 28q33 0 89 -7l-5 -10l4 -24q-23 -5 -36.5 -25t-13.5 -53v-476q0 -33 13.5 -53t36.5 -25l-6 -34h-51q-31 -19 -48 -45.5t-17 -55.5q0 -24 16 -40t38 -16q42 0 64 42l41 -22q-23 -41 -54 -60.5zM690 628q-40 -20 -69 -50.5t-46 -59.5t-47 -86l-10 -21
q48 -22 91.5 -55.5t75.5 -74.5h5v347z" />
    <glyph glyph-name="Aring.s1" unicode="&#xe00a;" horiz-adv-x="924" 
d="M689.5 781q-31.5 31 -31.5 75t31.5 75t75.5 31t75.5 -31t31.5 -75t-31.5 -75t-75.5 -31t-75.5 31zM729.5 891.5q-14.5 -14.5 -14.5 -35.5q0 -22 14.5 -36.5t35.5 -14.5t35.5 14.5t14.5 36.5q0 21 -14.5 35.5t-35.5 14.5t-35.5 -14.5zM860.5 641q-13.5 -20 -13.5 -53v-476
q0 -33 13.5 -53t36.5 -25l-6 -34h-246l-6 34q23 6 37 26t14 52v11q-20 69 -75.5 131t-125.5 98l-25 -53q-46 -97 -79 -162q-42 -79 -96 -120.5t-141 -41.5q-51 0 -89 14t-58 38t-20 51q0 29 15.5 47t45.5 18q28 0 42 -12.5t29 -37.5q13 -23 26.5 -35t38.5 -12q47 0 79 29.5
t66 92.5q27 51 64 127l41 82q-38 10 -68 10q-56 0 -86.5 -18t-30.5 -44q0 -13 9 -31q10 -20 10 -38q0 -30 -20.5 -49.5t-53.5 -19.5t-54 25t-21 60q0 50 32.5 90.5t88.5 63.5t126 23q46 0 97 -15q4 10 14 28q46 85 90.5 137t104 80t143.5 28q33 0 89 -7l-5 -10l4 -24
q-23 -5 -36.5 -25zM690 628q-40 -20 -69 -50.5t-46 -59.5t-47 -86l-10 -21q48 -22 91.5 -55.5t75.5 -74.5h5v347z" />
    <glyph glyph-name="Aringacute.s1" unicode="&#xe00b;" horiz-adv-x="924" 
d="M921 1085.5q13 -12.5 13 -29.5q0 -19 -10 -32t-27 -25l-68 -47q28 -13 45 -39t17 -57q0 -43 -31 -74.5t-75 -31.5q-45 0 -76 31t-31 75q0 33 18.5 60t48.5 38l84 109q15 18 28 26.5t32 8.5t32 -12.5zM820.5 819.5q14.5 14.5 14.5 36.5q0 21 -14.5 35.5t-35.5 14.5
q-22 0 -36 -14.5t-14 -35.5q0 -22 14 -36.5t36 -14.5q21 0 35.5 14.5zM561.5 599q44.5 52 104 80t143.5 28q33 0 89 -7l-5 -10l4 -24q-23 -5 -36.5 -25t-13.5 -53v-476q0 -33 13.5 -53t36.5 -25l-6 -34h-246l-6 34q23 6 37 26t14 52v11q-20 69 -75.5 131t-125.5 98l-25 -53
q-46 -97 -79 -162q-42 -79 -96 -120.5t-141 -41.5q-51 0 -89 14t-58 38t-20 51q0 29 15.5 47t45.5 18q28 0 42 -12.5t29 -37.5q13 -23 26.5 -35t38.5 -12q47 0 79 29.5t66 92.5q27 51 64 127l41 82q-38 10 -68 10q-56 0 -86.5 -18t-30.5 -44q0 -13 9 -31q10 -20 10 -38
q0 -30 -20.5 -49.5t-53.5 -19.5t-54 25t-21 60q0 50 32.5 90.5t88.5 63.5t126 23q46 0 97 -15q4 10 14 28q46 85 90.5 137zM690 628q-40 -20 -69 -50.5t-46 -59.5t-47 -86l-10 -21q48 -22 91.5 -55.5t75.5 -74.5h5v347z" />
    <glyph glyph-name="Atilde.s1" unicode="&#xe00c;" horiz-adv-x="924" 
d="M654.5 830.5q-11.5 -9.5 -15.5 -29.5l-45 12q6 55 32.5 80.5t61.5 25.5q20 0 36.5 -7t41.5 -21q18 -12 30.5 -17.5t25.5 -5.5q14 0 25 9t16 29l43 -11q-7 -56 -33 -81.5t-61 -25.5q-20 0 -37.5 7.5t-39.5 21.5q-18 12 -30.5 17.5t-25.5 5.5t-24.5 -9.5zM561.5 599
q44.5 52 104 80t143.5 28q33 0 89 -7l-5 -10l4 -24q-23 -5 -36.5 -25t-13.5 -53v-476q0 -33 13.5 -53t36.5 -25l-6 -34h-246l-6 34q23 6 37 26t14 52v11q-20 69 -75.5 131t-125.5 98l-25 -53q-46 -97 -79 -162q-42 -79 -96 -120.5t-141 -41.5q-51 0 -89 14t-58 38t-20 51
q0 29 15.5 47t45.5 18q28 0 42 -12.5t29 -37.5q13 -23 26.5 -35t38.5 -12q47 0 79 29.5t66 92.5q27 51 64 127l41 82q-38 10 -68 10q-56 0 -86.5 -18t-30.5 -44q0 -13 9 -31q10 -20 10 -38q0 -30 -20.5 -49.5t-53.5 -19.5t-54 25t-21 60q0 50 32.5 90.5t88.5 63.5t126 23
q46 0 97 -15q4 10 14 28q46 85 90.5 137zM690 628q-40 -20 -69 -50.5t-46 -59.5t-47 -86l-10 -21q48 -22 91.5 -55.5t75.5 -74.5h5v347z" />
    <glyph glyph-name="B.s1" unicode="&#xe00d;" horiz-adv-x="945" 
d="M863 304q47 -49 47 -116q0 -94 -68 -148.5t-184 -54.5q-60 0 -144 8q-11 1 -52 4t-88 3h-106l-6 34q23 6 37 26t14 52v525l-36 6q-67 14 -100 14q-38 0 -60 -14t-22 -38q0 -11 4 -19.5t12 -19.5q10 -14 14.5 -24t4.5 -25q0 -28 -19.5 -46.5t-49.5 -18.5q-34 0 -57 27
t-23 63q1 75 58 126t172 51q47 0 101 -7q86 -12 197 -12h134q64 0 114.5 -22t78.5 -61t28 -87q0 -53 -33.5 -94.5t-90.5 -58.5v-5q76 -19 123 -68zM469 632v-227h113q57 0 91.5 33.5t34.5 84.5q0 49 -34.5 81.5t-96.5 32.5q-66 0 -108 -5zM716 98.5q38 39.5 38 102.5
q0 64 -46 102t-114 38h-125v-262q7 -2 33 -8t51 -9t48 -3q77 0 115 39.5z" />
    <glyph glyph-name="C.s1" unicode="&#xe00e;" horiz-adv-x="921" 
d="M854.5 111.5q-35.5 -58.5 -97.5 -94.5t-147 -36q-104 0 -181 48t-118.5 131.5t-41.5 188.5q0 71 23.5 134t66.5 113q-40 28 -78 43t-80 15q-48 0 -76.5 -22.5t-28.5 -55.5q0 -14 13 -33q14 -22 14 -40q0 -28 -19 -45.5t-50 -17.5q-33 0 -53 27.5t-20 66.5q0 51 28.5 92.5
t79 65t113.5 23.5q60 0 109 -19t98 -53q46 37 102.5 56.5t118.5 19.5q103 0 164 -40.5t61 -108.5q0 -63 -49 -101t-119 -38q-68 0 -123 25t-115 71q-30 -54 -30 -122q0 -105 35 -177t92.5 -107.5t122.5 -35.5q79 0 123.5 49.5t66.5 118.5l42 -12q-11 -71 -46.5 -129.5z
M564 636.5q-42 -19.5 -76 -55.5q56 -45 100.5 -68t98.5 -23q46 0 72 22t26 55q0 40 -34.5 64.5t-105.5 24.5q-39 0 -81 -19.5z" />
    <glyph glyph-name="Ccaron.s1" unicode="&#xe00f;" horiz-adv-x="921" 
d="M415 879l22 36l139 -62l138 62l23 -36l-161 -137zM854.5 111.5q-35.5 -58.5 -97.5 -94.5t-147 -36q-104 0 -181 48t-118.5 131.5t-41.5 188.5q0 71 23.5 134t66.5 113q-40 28 -78 43t-80 15q-48 0 -76.5 -22.5t-28.5 -55.5q0 -14 13 -33q14 -22 14 -40q0 -28 -19 -45.5
t-50 -17.5q-33 0 -53 27.5t-20 66.5q0 51 28.5 92.5t79 65t113.5 23.5q60 0 109 -19t98 -53q46 37 102.5 56.5t118.5 19.5q103 0 164 -40.5t61 -108.5q0 -63 -49 -101t-119 -38q-68 0 -123 25t-115 71q-30 -54 -30 -122q0 -105 35 -177t92.5 -107.5t122.5 -35.5
q79 0 123.5 49.5t66.5 118.5l42 -12q-11 -71 -46.5 -129.5zM564 636.5q-42 -19.5 -76 -55.5q56 -45 100.5 -68t98.5 -23q46 0 72 22t26 55q0 40 -34.5 64.5t-105.5 24.5q-39 0 -81 -19.5z" />
    <glyph glyph-name="Ccedilla.s1" unicode="&#xe010;" horiz-adv-x="921" 
d="M817.5 63q-67.5 -73 -182.5 -81l-21 -46q10 5 27 5q37 0 59.5 -18t22.5 -50q0 -27 -18.5 -51.5t-52.5 -39.5t-78 -15q-52 0 -86 20.5t-34 49.5q0 15 10 26t25 11q17 0 25 -7.5t16 -22.5q9 -17 19 -26t33 -9q27 0 42.5 13t15.5 36q0 14 -10.5 23t-27.5 9q-22 0 -35 -12
l-32 14l39 91q-93 8 -162 57.5t-106 129.5t-37 179q0 71 23.5 134t66.5 113q-40 28 -78 43t-80 15q-48 0 -76.5 -22.5t-28.5 -55.5q0 -14 13 -33q14 -22 14 -40q0 -28 -19 -45.5t-50 -17.5q-33 0 -53 27.5t-20 66.5q0 51 28.5 92.5t79 65t113.5 23.5q60 0 109 -19t98 -53
q46 37 102.5 56.5t118.5 19.5q103 0 164 -40.5t61 -108.5q0 -63 -49 -101t-119 -38q-68 0 -123 25t-115 71q-30 -54 -30 -122q0 -105 35 -177t92.5 -107.5t122.5 -35.5q79 0 123.5 49.5t66.5 118.5l42 -12q-16 -105 -83.5 -178zM564 636.5q-42 -19.5 -76 -55.5
q56 -45 100.5 -68t98.5 -23q46 0 72 22t26 55q0 40 -34.5 64.5t-105.5 24.5q-39 0 -81 -19.5z" />
    <glyph glyph-name="Ccircumflex.s1" unicode="&#xe011;" horiz-adv-x="921" 
d="M415 774l161 137l161 -137l-22 -36l-139 62l-138 -62zM854.5 111.5q-35.5 -58.5 -97.5 -94.5t-147 -36q-104 0 -181 48t-118.5 131.5t-41.5 188.5q0 71 23.5 134t66.5 113q-40 28 -78 43t-80 15q-48 0 -76.5 -22.5t-28.5 -55.5q0 -14 13 -33q14 -22 14 -40
q0 -28 -19 -45.5t-50 -17.5q-33 0 -53 27.5t-20 66.5q0 51 28.5 92.5t79 65t113.5 23.5q60 0 109 -19t98 -53q46 37 102.5 56.5t118.5 19.5q103 0 164 -40.5t61 -108.5q0 -63 -49 -101t-119 -38q-68 0 -123 25t-115 71q-30 -54 -30 -122q0 -105 35 -177t92.5 -107.5
t122.5 -35.5q79 0 123.5 49.5t66.5 118.5l42 -12q-11 -71 -46.5 -129.5zM564 636.5q-42 -19.5 -76 -55.5q56 -45 100.5 -68t98.5 -23q46 0 72 22t26 55q0 40 -34.5 64.5t-105.5 24.5q-39 0 -81 -19.5z" />
    <glyph glyph-name="Cdotaccent.s1" unicode="&#xe012;" horiz-adv-x="921" 
d="M524.5 808q-19.5 20 -19.5 46q0 28 19 48.5t51 20.5q33 0 52.5 -20.5t19.5 -48.5q0 -26 -19.5 -46t-52.5 -20q-31 0 -50.5 20zM854.5 111.5q-35.5 -58.5 -97.5 -94.5t-147 -36q-104 0 -181 48t-118.5 131.5t-41.5 188.5q0 71 23.5 134t66.5 113q-40 28 -78 43t-80 15
q-48 0 -76.5 -22.5t-28.5 -55.5q0 -14 13 -33q14 -22 14 -40q0 -28 -19 -45.5t-50 -17.5q-33 0 -53 27.5t-20 66.5q0 51 28.5 92.5t79 65t113.5 23.5q60 0 109 -19t98 -53q46 37 102.5 56.5t118.5 19.5q103 0 164 -40.5t61 -108.5q0 -63 -49 -101t-119 -38q-68 0 -123 25
t-115 71q-30 -54 -30 -122q0 -105 35 -177t92.5 -107.5t122.5 -35.5q79 0 123.5 49.5t66.5 118.5l42 -12q-11 -71 -46.5 -129.5zM564 636.5q-42 -19.5 -76 -55.5q56 -45 100.5 -68t98.5 -23q46 0 72 22t26 55q0 40 -34.5 64.5t-105.5 24.5q-39 0 -81 -19.5z" />
    <glyph glyph-name="D.s1" unicode="&#xe013;" horiz-adv-x="957" 
d="M736 656.5q86 -43.5 135.5 -122.5t49.5 -182q0 -111 -44.5 -190.5t-123 -120.5t-178.5 -41h-320l-6 34q22 6 36.5 26t14.5 52v527q-35 7 -68.5 12.5t-54.5 5.5q-38 0 -60 -14t-22 -38q0 -11 4 -19.5t12 -19.5q10 -14 14.5 -24t4.5 -25q0 -28 -19.5 -46.5t-49.5 -18.5
q-34 0 -57 27t-23 63q1 48 25 88t75 64.5t129 24.5q46 0 102 -7q86 -12 197 -12h36q105 0 191 -43.5zM677.5 103q45.5 38 67.5 97.5t22 123.5q0 86 -29 156.5t-86.5 112.5t-138.5 42q-28 0 -57 -3v-556q57 -11 110 -11q66 0 111.5 38z" />
    <glyph glyph-name="Dcaron.s1" unicode="&#xe014;" horiz-adv-x="957" 
d="M377 879l23 36l139 -62l137 62l24 -36l-161 -137zM736 656.5q86 -43.5 135.5 -122.5t49.5 -182q0 -111 -44.5 -190.5t-123 -120.5t-178.5 -41h-320l-6 34q22 6 36.5 26t14.5 52v527q-35 7 -68.5 12.5t-54.5 5.5q-38 0 -60 -14t-22 -38q0 -11 4 -19.5t12 -19.5
q10 -14 14.5 -24t4.5 -25q0 -28 -19.5 -46.5t-49.5 -18.5q-34 0 -57 27t-23 63q1 48 25 88t75 64.5t129 24.5q46 0 102 -7q86 -12 197 -12h36q105 0 191 -43.5zM677.5 103q45.5 38 67.5 97.5t22 123.5q0 86 -29 156.5t-86.5 112.5t-138.5 42q-28 0 -57 -3v-556
q57 -11 110 -11q66 0 111.5 38z" />
    <glyph glyph-name="Dcroat.s1" unicode="&#xe015;" horiz-adv-x="983" 
d="M736 656.5q86 -43.5 135.5 -122.5t49.5 -182q0 -111 -44.5 -190.5t-123 -120.5t-178.5 -41h-320l-6 34q22 6 36.5 26t14.5 52v201h-108v73h108v253q-35 7 -68.5 12.5t-54.5 5.5q-38 0 -60 -14t-22 -38q0 -11 4 -19.5t12 -19.5q10 -14 14.5 -24t4.5 -25q0 -28 -19.5 -46.5
t-49.5 -18.5q-34 0 -57 27t-23 63q1 48 25 88t75 64.5t129 24.5q46 0 102 -7q86 -12 197 -12h36q105 0 191 -43.5zM677.5 103q45.5 38 67.5 97.5t22 123.5q0 86 -29 156.5t-86.5 112.5t-138.5 42q-28 0 -57 -3v-246h119l1 -73h-120v-237q57 -11 110 -11q66 0 111.5 38z" />
    <glyph glyph-name="E.s1" unicode="&#xe016;" horiz-adv-x="890" 
d="M829 -17h-12q-16 7 -60.5 12t-80.5 5h-396l-6 34q23 6 37 26t14 52v526q-41 7 -83 13t-64 6q-38 0 -60 -14t-22 -38q0 -11 4 -19.5t12 -19.5q10 -14 14.5 -24t4.5 -25q0 -28 -19.5 -46.5t-50.5 -18.5q-34 0 -57 27t-23 63q1 48 25 88t75 64.5t129 24.5q47 0 103 -7
q86 -12 196 -12h300l40 -158l-36 -13q-23 44 -81 75t-146 31q-60 0 -105 -6v-236h186q32 0 53.5 14.5t26.5 37.5l34 -6v-158l-35 -6q-5 24 -26 38t-53 14h-186v-250q82 -12 133 -12q82 0 143 36.5t93 88.5l36 -17z" />
    <glyph glyph-name="Ebreve.s1" unicode="&#xe017;" horiz-adv-x="890" 
d="M474.5 801.5q-38.5 28.5 -53.5 72.5l44 24q10 -23 39.5 -39t65.5 -16t66.5 15.5t40.5 38.5l44 -23q-16 -44 -54.5 -72.5t-96.5 -28.5q-57 0 -95.5 28.5zM829 -17h-12q-16 7 -60.5 12t-80.5 5h-396l-6 34q23 6 37 26t14 52v527q-110 18 -147 18q-38 0 -60 -14t-22 -38
q0 -11 4 -19.5t12 -19.5q10 -14 14.5 -24t4.5 -25q0 -28 -19.5 -46.5t-50.5 -18.5q-34 0 -57 27t-23 63q1 48 25 88t75 64.5t129 24.5q47 0 103 -7q86 -12 196 -12h300l40 -158l-36 -13q-23 44 -81 75t-146 31q-60 0 -105 -6v-236h186q32 0 53.5 14.5t26.5 37.5l34 -6v-158
l-35 -6q-5 24 -26 38t-53 14h-186v-250q82 -12 133 -12q82 0 143 36.5t93 88.5l36 -17z" />
    <glyph glyph-name="Ecaron.s1" unicode="&#xe018;" horiz-adv-x="890" 
d="M409 879l23 36l139 -62l138 62l23 -36l-161 -137zM829 -17h-12q-16 7 -60.5 12t-80.5 5h-396l-6 34q23 6 37 26t14 52v526q-41 7 -83 13t-64 6q-38 0 -60 -14t-22 -38q0 -11 4 -19.5t12 -19.5q10 -14 14.5 -24t4.5 -25q0 -28 -19.5 -46.5t-50.5 -18.5q-34 0 -57 27
t-23 63q1 48 25 88t75 64.5t129 24.5q47 0 103 -7q86 -12 196 -12h300l40 -158l-36 -13q-23 44 -81 75t-146 31q-60 0 -105 -6v-236h186q32 0 53.5 14.5t26.5 37.5l34 -6v-158l-35 -6q-5 24 -26 38t-53 14h-186v-250q82 -12 133 -12q82 0 143 36.5t93 88.5l36 -17z" />
    <glyph glyph-name="Edotaccent.s1" unicode="&#xe019;" horiz-adv-x="890" 
d="M512.5 808q-19.5 20 -19.5 46q0 28 19.5 48.5t51.5 20.5q33 0 52.5 -20.5t19.5 -48.5q0 -26 -19.5 -46t-52.5 -20q-32 0 -51.5 20zM829 -17h-12q-16 7 -60.5 12t-80.5 5h-396l-6 34q23 6 37 26t14 52v526q-41 7 -83 13t-64 6q-38 0 -60 -14t-22 -38q0 -11 4 -19.5
t12 -19.5q10 -14 14.5 -24t4.5 -25q0 -28 -19.5 -46.5t-50.5 -18.5q-34 0 -57 27t-23 63q1 48 25 88t75 64.5t129 24.5q47 0 103 -7q86 -12 196 -12h300l40 -158l-36 -13q-23 44 -81 75t-146 31q-60 0 -105 -6v-236h186q32 0 53.5 14.5t26.5 37.5l34 -6v-158l-35 -6
q-5 24 -26 38t-53 14h-186v-250q82 -12 133 -12q82 0 143 36.5t93 88.5l36 -17z" />
    <glyph glyph-name="Emacron.s1" unicode="&#xe01a;" horiz-adv-x="890" 
d="M424 797v69h293v-69h-293zM829 -17h-12q-16 7 -60.5 12t-80.5 5h-396l-6 34q23 6 37 26t14 52v526q-41 7 -83 13t-64 6q-38 0 -60 -14t-22 -38q0 -11 4 -19.5t12 -19.5q10 -14 14.5 -24t4.5 -25q0 -28 -19.5 -46.5t-50.5 -18.5q-34 0 -57 27t-23 63q1 48 25 88t75 64.5
t129 24.5q47 0 103 -7q86 -12 196 -12h300l40 -158l-36 -13q-23 44 -81 75t-146 31q-60 0 -105 -6v-236h186q32 0 53.5 14.5t26.5 37.5l34 -6v-158l-35 -6q-5 24 -26 38t-53 14h-186v-250q82 -12 133 -12q82 0 143 36.5t93 88.5l36 -17z" />
    <glyph glyph-name="Eogonek.s1" unicode="&#xe01b;" horiz-adv-x="890" 
d="M874.5 -197.5q-31.5 -19.5 -76.5 -19.5q-55 0 -88 29t-33 74q0 65 62 114h-459l-6 34q23 6 37 26t14 52v526q-41 7 -83 13t-64 6q-38 0 -60 -14t-22 -38q0 -11 4 -19.5t12 -19.5q10 -14 14.5 -24t4.5 -25q0 -28 -19.5 -46.5t-50.5 -18.5q-34 0 -57 27t-23 63q1 48 25 88
t75 64.5t129 24.5q47 0 103 -7q86 -12 196 -12h300l40 -158l-36 -13q-23 44 -81 75t-146 31q-60 0 -105 -6v-236h186q32 0 53.5 14.5t26.5 37.5l34 -6v-158l-35 -6q-5 24 -26 38t-53 14h-186v-250q82 -12 133 -12q82 0 143 36.5t93 88.5l36 -17l-51 -173q-31 -19 -48 -45.5
t-17 -55.5q0 -24 16 -40t38 -16q40 0 64 42l41 -22q-23 -41 -54.5 -60.5z" />
    <glyph glyph-name="F.s1" unicode="&#xe01c;" horiz-adv-x="854" 
d="M814 529q-24 44 -82 75t-146 31q-48 0 -112 -6v-239h150q32 0 53.5 14t26.5 38l34 -6v-158l-34 -6q-6 24 -27 38t-53 14h-150v-286q0 -133 -67 -193.5t-175 -60.5q-78 0 -117 29.5t-39 72.5q0 30 20 50t49 20q32 0 46.5 -15t28.5 -43q9 -20 16.5 -29.5t21.5 -9.5
q31 0 46 35t15 114l-1 628l-29 6q-81 15 -111 15q-38 0 -60 -14.5t-22 -37.5q0 -11 4 -19t12 -21q9 -12 14 -23t5 -26q0 -28 -19.5 -46t-50.5 -18q-34 0 -57 27t-23 62q1 76 58 126.5t172 50.5q46 0 102 -7q46 -5 87 -8t109 -3h300l41 -159z" />
    <glyph glyph-name="G.s1" unicode="&#xe01d;" horiz-adv-x="955" 
d="M908 301q-14 -20 -14 -52l-1 -225q0 -89 -42.5 -144.5t-108.5 -79.5t-141 -24q-69 0 -120 16t-78 43.5t-27 60.5q0 22 14 40.5t45 18.5q26 0 37 -11t23 -35q10 -21 21 -34.5t33.5 -23t61.5 -9.5q52 0 89 38.5t37 113.5v18q-64 -31 -145 -31q-96 0 -169.5 45.5t-113.5 126
t-40 183.5q0 75 24 141t67 117q-40 28 -78 43.5t-80 15.5q-49 0 -77.5 -22t-28.5 -55q0 -9 3 -17t10 -18q14 -20 14 -38q0 -28 -19.5 -46t-48.5 -18q-34 0 -54 27.5t-20 66.5q0 51 29 92.5t79.5 65t112.5 23.5q60 0 109.5 -19t98.5 -53q46 37 102 56.5t118 19.5
q103 0 164 -40.5t61 -108.5q0 -42 -23 -73.5t-61.5 -48.5t-83.5 -17q-67 0 -122.5 25t-113.5 70q-32 -59 -32 -133q0 -101 34 -170.5t87.5 -103.5t110.5 -34q46 0 86 19v146q0 33 -13.5 53t-36.5 25l6 34h246l6 -34q-23 -6 -37 -26zM565 635.5q-42 -19.5 -76 -56.5
q55 -44 99.5 -67t98.5 -23q46 0 72.5 22t26.5 55q0 40 -35 64.5t-105 24.5q-39 0 -81 -19.5z" />
    <glyph glyph-name="Gbreve.s1" unicode="&#xe01e;" horiz-adv-x="955" 
d="M518.5 801.5q-38.5 28.5 -53.5 72.5l44 24q10 -23 39.5 -39t65.5 -16t66.5 15.5t40.5 38.5l44 -23q-16 -44 -54.5 -72.5t-96.5 -28.5q-57 0 -95.5 28.5zM908 301q-14 -20 -14 -52l-1 -225q0 -89 -42.5 -144.5t-108.5 -79.5t-141 -24q-69 0 -120 16t-78 43.5t-27 60.5
q0 22 14 40.5t45 18.5q26 0 37 -11t23 -35q10 -21 21 -34.5t33.5 -23t61.5 -9.5q52 0 89 38.5t37 113.5v18q-64 -31 -145 -31q-96 0 -169.5 45.5t-113.5 126t-40 183.5q0 75 24 141t67 117q-40 28 -78 43.5t-80 15.5q-49 0 -77.5 -22t-28.5 -55q0 -9 3 -17t10 -18
q14 -20 14 -38q0 -28 -19.5 -46t-48.5 -18q-34 0 -54 27.5t-20 66.5q0 51 29 92.5t79.5 65t112.5 23.5q60 0 109.5 -19t98.5 -53q46 37 102 56.5t118 19.5q103 0 164 -40.5t61 -108.5q0 -42 -23 -73.5t-61.5 -48.5t-83.5 -17q-67 0 -122.5 25t-113.5 70q-32 -59 -32 -133
q0 -101 34 -170.5t87.5 -103.5t110.5 -34q46 0 86 19v146q0 33 -13.5 53t-36.5 25l6 34h246l6 -34q-23 -6 -37 -26zM565 635.5q-42 -19.5 -76 -56.5q55 -44 99.5 -67t98.5 -23q46 0 72.5 22t26.5 55q0 40 -35 64.5t-105 24.5q-39 0 -81 -19.5z" />
    <glyph glyph-name="Gcircumflex.s1" unicode="&#xe01f;" horiz-adv-x="955" 
d="M449 774l162 137l161 -137l-23 -36l-138 62l-138 -62zM908 301q-14 -20 -14 -52l-1 -225q0 -89 -42.5 -144.5t-108.5 -79.5t-141 -24q-69 0 -120 16t-78 43.5t-27 60.5q0 22 14 40.5t45 18.5q26 0 37 -11t23 -35q10 -21 21 -34.5t33.5 -23t61.5 -9.5q52 0 89 38.5
t37 113.5v18q-64 -31 -145 -31q-96 0 -169.5 45.5t-113.5 126t-40 183.5q0 75 24 141t67 117q-40 28 -78 43.5t-80 15.5q-49 0 -77.5 -22t-28.5 -55q0 -9 3 -17t10 -18q14 -20 14 -38q0 -28 -19.5 -46t-48.5 -18q-34 0 -54 27.5t-20 66.5q0 51 29 92.5t79.5 65t112.5 23.5
q60 0 109.5 -19t98.5 -53q46 37 102 56.5t118 19.5q103 0 164 -40.5t61 -108.5q0 -42 -23 -73.5t-61.5 -48.5t-83.5 -17q-67 0 -122.5 25t-113.5 70q-32 -59 -32 -133q0 -101 34 -170.5t87.5 -103.5t110.5 -34q46 0 86 19v146q0 33 -13.5 53t-36.5 25l6 34h246l6 -34
q-23 -6 -37 -26zM565 635.5q-42 -19.5 -76 -56.5q55 -44 99.5 -67t98.5 -23q46 0 72.5 22t26.5 55q0 40 -35 64.5t-105 24.5q-39 0 -81 -19.5z" />
    <glyph glyph-name="uni0122.s1" unicode="&#xe020;" horiz-adv-x="958" 
d="M908 301q-14 -20 -14 -52l-1 -217q0 -89 -42.5 -144.5t-108.5 -79.5t-141 -24q-69 0 -120 16t-78 43.5t-27 60.5q0 22 14 40.5t45 18.5q26 0 37 -11t23 -35q10 -21 21 -34.5t33.5 -23t61.5 -9.5q52 0 89 38.5t37 113.5v10q-64 -31 -145 -31q-96 0 -169.5 45.5t-113.5 126
t-40 183.5q0 75 24 141t67 117q-40 28 -78 43.5t-80 15.5q-49 0 -77.5 -22t-28.5 -55q0 -9 3 -17t10 -18q14 -20 14 -38q0 -28 -19.5 -46t-48.5 -18q-34 0 -54 27.5t-20 66.5q0 51 29 92.5t79.5 65t112.5 23.5q60 0 109.5 -19t98.5 -53q46 37 102 56.5t118 19.5
q103 0 164 -40.5t61 -108.5q0 -42 -23 -73.5t-61.5 -48.5t-83.5 -17q-67 0 -122.5 25t-113.5 70q-32 -59 -32 -133q0 -101 34 -170.5t87.5 -103.5t110.5 -34q46 0 86 19v146q0 33 -13.5 53t-36.5 25l6 34h246l6 -34q-23 -6 -37 -26zM565 635.5q-42 -19.5 -76 -56.5
q55 -44 99.5 -67t98.5 -23q46 0 72.5 22t26.5 55q0 40 -35 64.5t-105 24.5q-39 0 -81 -19.5zM682.5 -291.5q27.5 -31.5 27.5 -83.5q0 -71 -42 -140t-109 -108l-35 45q81 57 104 154l-2 3q-13 -8 -27 -8q-36 0 -61 24t-25 62q0 37 28.5 60t69.5 23q44 0 71.5 -31.5z" />
    <glyph glyph-name="Gdotaccent.s1" unicode="&#xe021;" horiz-adv-x="955" 
d="M559.5 808q-19.5 20 -19.5 46q0 28 19 48.5t51 20.5q33 0 52.5 -20.5t19.5 -48.5q0 -26 -19.5 -46t-52.5 -20q-31 0 -50.5 20zM908 301q-14 -20 -14 -52l-1 -225q0 -89 -42.5 -144.5t-108.5 -79.5t-141 -24q-69 0 -120 16t-78 43.5t-27 60.5q0 22 14 40.5t45 18.5
q26 0 37 -11t23 -35q10 -21 21 -34.5t33.5 -23t61.5 -9.5q52 0 89 38.5t37 113.5v18q-64 -31 -145 -31q-96 0 -169.5 45.5t-113.5 126t-40 183.5q0 75 24 141t67 117q-40 28 -78 43.5t-80 15.5q-49 0 -77.5 -22t-28.5 -55q0 -9 3 -17t10 -18q14 -20 14 -38q0 -28 -19.5 -46
t-48.5 -18q-34 0 -54 27.5t-20 66.5q0 51 29 92.5t79.5 65t112.5 23.5q60 0 109.5 -19t98.5 -53q46 37 102 56.5t118 19.5q103 0 164 -40.5t61 -108.5q0 -42 -23 -73.5t-61.5 -48.5t-83.5 -17q-67 0 -122.5 25t-113.5 70q-32 -59 -32 -133q0 -101 34 -170.5t87.5 -103.5
t110.5 -34q46 0 86 19v146q0 33 -13.5 53t-36.5 25l6 34h246l6 -34q-23 -6 -37 -26zM565 635.5q-42 -19.5 -76 -56.5q55 -44 99.5 -67t98.5 -23q46 0 72.5 22t26.5 55q0 40 -35 64.5t-105 24.5q-39 0 -81 -19.5z" />
    <glyph glyph-name="H.s1" unicode="&#xe022;" horiz-adv-x="1001" 
d="M942 60q14 -20 37 -26l-6 -34h-246l-6 34q23 6 37 26t14 52v212h-291v-212q0 -32 14 -52t37 -26l-6 -34h-246l-6 34q23 6 37 26t14 52v523q-24 4 -36 7q-79 15 -111 15q-38 0 -60 -14t-22 -38q0 -11 4 -19.5t12 -19.5q10 -14 14.5 -24t4.5 -25q0 -28 -19.5 -46.5
t-49.5 -18.5q-34 0 -57.5 27t-23.5 63q0 48 24 88t75.5 64.5t129.5 24.5q47 0 103 -7q86 -12 195 -12h17l7 -34q-23 -6 -37 -26t-14 -52v-188h291v188q0 32 -14 52t-37 26l6 34h245l7 -34q-23 -6 -37 -26t-14 -52v-476q0 -32 14 -52z" />
    <glyph glyph-name="Hbar.s1" unicode="&#xe023;" horiz-adv-x="1021" 
d="M942 60q14 -20 37 -26l-6 -34h-246l-6 34q23 6 37 26t14 52v212h-291v-212q0 -32 14 -52t37 -26l-6 -34h-246l-6 34q23 6 37 26t14 52v369h-86v51h86v103q-24 4 -36 7q-79 15 -111 15q-38 0 -60 -14t-22 -38q0 -11 4 -19.5t12 -19.5q10 -14 14.5 -24t4.5 -25
q0 -28 -19.5 -46.5t-49.5 -18.5q-34 0 -57.5 27t-23.5 63q0 48 24 88t75.5 64.5t129.5 24.5q47 0 103 -7q86 -12 195 -12h17l7 -34q-23 -6 -37 -26t-14 -52v-56h291v56q0 32 -14 52t-37 26l6 34h245l7 -34q-23 -6 -37 -26t-14 -52v-56h80l1 -51h-81v-369q0 -32 14 -52z
M772 481h-291v-81h291v81z" />
    <glyph glyph-name="Hcircumflex.s1" unicode="&#xe024;" horiz-adv-x="1001" 
d="M465 774l162 137l161 -137l-23 -36l-138 62l-139 -62zM942 60q14 -20 37 -26l-6 -34h-246l-6 34q23 6 37 26t14 52v212h-291v-212q0 -32 14 -52t37 -26l-6 -34h-246l-6 34q23 6 37 26t14 52v523q-24 4 -36 7q-79 15 -111 15q-38 0 -60 -14t-22 -38q0 -11 4 -19.5
t12 -19.5q10 -14 14.5 -24t4.5 -25q0 -28 -19.5 -46.5t-49.5 -18.5q-34 0 -57.5 27t-23.5 63q0 48 24 88t75.5 64.5t129.5 24.5q47 0 103 -7q86 -12 195 -12h17l7 -34q-23 -6 -37 -26t-14 -52v-188h291v188q0 32 -14 52t-37 26l6 34h245l7 -34q-23 -6 -37 -26t-14 -52v-476
q0 -32 14 -52z" />
    <glyph glyph-name="I.s1" unicode="&#xe025;" horiz-adv-x="554" 
d="M495 60q14 -20 37 -26l-6 -34h-246l-6 34q23 5 36.5 25t13.5 53v523q-24 4 -36 7q-79 15 -111 15q-38 0 -60 -14t-22 -38q0 -11 4.5 -20t12.5 -19q10 -14 14.5 -24t4.5 -25q0 -28 -19.5 -46.5t-50.5 -18.5q-34 0 -57 27t-23 63q1 75 58 126t172 51q46 0 102 -7
q84 -12 196 -12h17l6 -34q-23 -6 -37 -26t-14 -52v-476q0 -32 14 -52z" />
    <glyph glyph-name="IJ.s1" unicode="&#xe026;" horiz-adv-x="862" 
d="M280 0l-6 34q23 5 36.5 25t13.5 53v523q-24 4 -36 7q-79 15 -111 15q-38 0 -60 -14t-22 -38q0 -11 4.5 -20t12.5 -19q10 -14 14.5 -24t4.5 -25q0 -28 -19.5 -46.5t-50.5 -18.5q-34 0 -57 27t-23 63q1 75 58 126t172 51q46 0 102 -7q84 -12 196 -12h17l6 -34
q-23 -6 -37 -26t-14 -52v-476q0 -32 14 -52t37 -26l-6 -34h-246zM808 640q-14 -20 -14 -52v-553q0 -133 -65.5 -193t-173.5 -60q-78 0 -118.5 29.5t-40.5 71.5q0 31 19.5 50t48.5 19q31 0 46.5 -14.5t30.5 -41.5q11 -20 20 -30t24 -10q28 0 40.5 34.5t12.5 114.5v583
q0 32 -14 52t-36 26l6 34h245l6 -34q-23 -6 -37 -26z" />
    <glyph glyph-name="Idotaccent.s1" unicode="&#xe027;" horiz-adv-x="555" 
d="M351.5 808q-19.5 20 -19.5 46q0 28 19 48.5t51 20.5q33 0 52.5 -20.5t19.5 -48.5q0 -26 -19.5 -46t-52.5 -20q-31 0 -50.5 20zM495 60q14 -20 37 -26l-6 -34h-246l-6 34q23 5 36.5 25t13.5 53v523q-24 4 -36 7q-79 15 -111 15q-38 0 -60 -14t-22 -38q0 -11 4.5 -20
t12.5 -19q10 -14 14.5 -24t4.5 -25q0 -28 -19.5 -46.5t-50.5 -18.5q-34 0 -57 27t-23 63q1 75 58 126t172 51q46 0 102 -7q84 -12 196 -12h17l6 -34q-23 -6 -37 -26t-14 -52v-476q0 -32 14 -52z" />
    <glyph glyph-name="Imacron.s1" unicode="&#xe028;" horiz-adv-x="555" 
d="M550 797h-294v69h294v-69zM495 640q-14 -20 -14 -52v-476q0 -32 14 -52t37 -26l-6 -34h-246l-6 34q23 5 36.5 25t13.5 53v523q-24 4 -36 7q-79 15 -111 15q-38 0 -60 -14t-22 -38q0 -11 4.5 -20t12.5 -19q10 -14 14.5 -24t4.5 -25q0 -28 -19.5 -46.5t-50.5 -18.5
q-34 0 -57 27t-23 63q1 75 58 126t172 51q46 0 102 -7q84 -12 196 -12h17l6 -34q-23 -6 -37 -26z" />
    <glyph glyph-name="Iogonek.s1" unicode="&#xe029;" horiz-adv-x="555" 
d="M496.5 -197.5q-31.5 -19.5 -76.5 -19.5q-55 0 -88 29t-33 74q0 65 62 114h-81l-6 34q23 5 36.5 25t13.5 53v523q-24 4 -36 7q-79 15 -111 15q-38 0 -60 -14t-22 -38q0 -11 4.5 -20t12.5 -19q10 -14 14.5 -24t4.5 -25q0 -28 -19.5 -46.5t-50.5 -18.5q-34 0 -57 27t-23 63
q1 75 58 126t172 51q46 0 102 -7q84 -12 196 -12h17l6 -34q-23 -6 -37 -26t-14 -52v-476q0 -32 14 -52t37 -26l-6 -34h-69q-31 -19 -48 -45.5t-17 -55.5q0 -24 16 -40t38 -16q40 0 64 42l41 -22q-23 -41 -54.5 -60.5z" />
    <glyph glyph-name="Itilde.s1" unicode="&#xe02a;" horiz-adv-x="555" 
d="M307.5 830.5q-11.5 -9.5 -15.5 -29.5l-45 12q7 56 33 81t61 25q20 0 37.5 -7.5t40.5 -21.5q22 -12 33 -17t23 -5q14 0 25 9t16 29l43 -11q-6 -56 -32.5 -81.5t-61.5 -25.5q-20 0 -37.5 7.5t-39.5 21.5q-18 11 -30.5 17t-24.5 6q-14 0 -25.5 -9.5zM495 640
q-14 -20 -14 -52v-476q0 -32 14 -52t37 -26l-6 -34h-246l-6 34q23 5 36.5 25t13.5 53v523q-24 4 -36 7q-79 15 -111 15q-38 0 -60 -14t-22 -38q0 -11 4.5 -20t12.5 -19q10 -14 14.5 -24t4.5 -25q0 -28 -19.5 -46.5t-50.5 -18.5q-34 0 -57 27t-23 63q1 75 58 126t172 51
q46 0 102 -7q84 -12 196 -12h17l6 -34q-23 -6 -37 -26z" />
    <glyph glyph-name="J.s1" unicode="&#xe02b;" horiz-adv-x="614" 
d="M603 418v-75h-90v-297q0 -133 -67 -193.5t-175 -60.5q-78 0 -117 29.5t-39 72.5q0 30 20 50t49 20q32 0 47 -15.5t28 -43.5q9 -20 16.5 -29t21.5 -9q31 0 45.5 35t14.5 114v327h-169v75h169v78q0 79 37 124v3q-43 4 -110 24q-38 11 -62.5 16t-48.5 5q-34 0 -56 -17
t-22 -41q0 -11 4 -20.5t13 -21.5q10 -16 14.5 -27t4.5 -26q0 -28 -19.5 -46t-50.5 -18q-34 0 -57 26.5t-23 62.5q1 49 25 92t75 70t129 27q33 0 64 -6t83 -19q40 -11 69 -17t56 -6q22 21 55.5 33.5t60.5 14.5l23 -49q-20 -14 -50 -28.5t-58 -14.5v-219h90z" />
    </font>
</defs>
</svg>
